Browse Collections Artists Sources   Search Dates

Add Show    List Management    Help


Grateful Dead 01/30/87
San Francisco Civic Auditorium, San Francisco, CA
Comments Add Comment    Source Collectors    Add to Collection    Add to Want List    History
Source # 141947 Other Sources
Entered by Matt Vernon
Checksums ffp , flac-md5
Disc Counts 0 / 0
Media Size
Date Circulated
Date Added
05/12/2018
05/12/2018
Source Summary flac16; Source Info: Oade's Master (FOB) Audience PCM; Schoeps CMC4/MK41 mics > Oade M118 > Oade modified Sony PCM-F1; Transfer Info: Master Oade PCM > Sek'd Prodif > Samplitude (.wav 16-bit/44.1k)> hard disk > Adobe Audition 3.0 > TLH flac16 
  Archive
Source Information - Download Text | Download Zip
Grateful Dead
Civic Center
San Francisco, CA
Friday  January 30th, 1987

Source Info:
Oade's Master (FOB) Audience PCM; Schoeps CMC4/MK41 mics > Oade M118 > Oade modified Sony PCM-F1

Transfer Info:
Master Oade PCM > Sek'd Prodif > Samplitude (.wav 16-bit/44.1k)> hard disk > Adobe Audition 3.0 > TLH flac16

Notes:
- Thanks to the Oade brothers and crew for their master recording(s), as well as a proper transfer to hard disk
- Thanks to Blake Jacobs for the hard disk
- Thanks to Charlie Miller for coordinating this effort
- Other One space included in "The Other One"
- Another fine Oade capture

Mastered by Scott Clugston
May 10, 2018

Set One:
t01 - Crowd
t02 - Touch Of Grey
t03 - New Minglewood Blues
t04 - Candyman
t05 - Me & My Uncle >
t06 - Mexicali Blues
t07 - When Push Comes To Shove
t08 - Beat It On Down The Line >
t09 - Promised Land >
t10 - China Cat Sunflower >
t11 - I Know You Rider

Set Two:
t12 - Crowd
t13 - Iko Iko >
t14 - Man Smart (Woman Smarter)
t15 - Ship Of Fools
t16 - Estimated Prophet >
t17 - Truckin' >
t18 - Drums >
t19 - Space >
t20 - The Other One >
t21 - Wharf Rat >
t22 - Throwing Stones >
t23 - Not Fade Away >
t24 - Not Fade Away Chant >
t25 - Not Fade Away >
t26 - Brokedown Palace



    length     expanded size    cdr  WAVE problems  fmt   ratio  filename
     1:25.04       15003452 B   ---   --   ---xx   flac  0.4994  gd87-01-30 t01 Crowd.flac
     6:34.11       69527516 B   ---   --   ---xx   flac  0.6035  gd87-01-30 t02 Touch Of Grey.flac
     8:07.31       85979756 B   ---   --   ---xx   flac  0.5819  gd87-01-30 t03 New Minglewood Blues.flac
     8:42.26       92141996 B   ---   --   ---xx   flac  0.5555  gd87-01-30 t04 Candyman.flac
     2:45.26       29167196 B   ---   --   ---xx   flac  0.6086  gd87-01-30 t05 Me & My Uncle.flac
     6:45.56       71573756 B   ---   --   ---xx   flac  0.5832  gd87-01-30 t06 Mexicali Blues.flac
     7:01.24       74320892 B   ---   --   ---xx   flac  0.5697  gd87-01-30 t07 When Push Comes To Shove.flac
     3:24.66       36140876 B   ---   --   ---xx   flac  0.6261  gd87-01-30 t08 Beat It On Down The Line.flac
     3:58.26       42044396 B   ---   --   ---xx   flac  0.6241  gd87-01-30 t09 Promised Land.flac
     4:59.55       52873004 B   ---   --   ---xx   flac  0.6030  gd87-01-30 t10 China Cat Sunflower.flac
     5:46.54       61161452 B   ---   --   ---xx   flac  0.6200  gd87-01-30 t11 I Know You Rider.flac
     1:34.23       16635740 B   ---   --   ---xx   flac  0.3756  gd87-01-30 t12 Crowd.flac
     5:22.02       56805548 B   ---   --   ---xx   flac  0.6158  gd87-01-30 t13 Iko Iko.flac
     6:53.31       72926156 B   ---   --   ---xx   flac  0.5993  gd87-01-30 t14 Man Smart (Woman Smarter).flac
     9:15.41       97998476 B   ---   --   ---xx   flac  0.5027  gd87-01-30 t15 Ship Of Fools.flac
    10:51.04      114845852 B   ---   --   ---xx   flac  0.6079  gd87-01-30 t16 Estimated Prophet.flac
     9:02.45       95714684 B   ---   --   ---xx   flac  0.6143  gd87-01-30 t17 Truckin'.flac
    10:35.28      112079900 B   ---   --   ---xx   flac  0.4221  gd87-01-30 t18 Drums.flac
     2:16.11       24016316 B   ---   --   ---xx   flac  0.3334  gd87-01-30 t19 Space.flac
     7:51.43       83185580 B   ---   --   ---xx   flac  0.4049  gd87-01-30 t20 The Other One.flac
     8:58.58       95039660 B   ---   --   ---xx   flac  0.4315  gd87-01-30 t21 Wharf Rat.flac
     8:32.01       90319196 B   ---   --   ---xx   flac  0.4750  gd87-01-30 t22 Throwing Stones.flac
     6:52.70       72841484 B   ---   --   ---xx   flac  0.4686  gd87-01-30 t23 Not Fade Away.flac
     0:47.47        8401388 B   ---   --   ---xx   flac  0.4220  gd87-01-30 t24 Not Fade Away Chant.flac
     1:56.33       20540060 B   ---   --   ---xx   flac  0.4351  gd87-01-30 t25 Not Fade Away.flac
     7:38.72       80960588 B   ---   --   ---xx   flac  0.4215  gd87-01-30 t26 Brokedown Palace.flac
   157:59.63     1672244920 B                            0.5308  (26 files)


Show Checksums
ffp
gd87-01-30 t01 Crowd.flac:1c31ed29728a3dd244f869eb3c05960d
gd87-01-30 t02 Touch Of Grey.flac:3a15704328f3d087fd2077cfc6950522
gd87-01-30 t03 New Minglewood Blues.flac:c31afafe5d82fa9834263e09079aec09
gd87-01-30 t04 Candyman.flac:10ac1c7c0b3b4b322a2d02d84927359f
gd87-01-30 t05 Me & My Uncle.flac:cb13248a4cb5b1a43a6e2bb206f86dfa
gd87-01-30 t06 Mexicali Blues.flac:df4b1e7e86bea2b61dd1c03ee0927f4c
gd87-01-30 t07 When Push Comes To Shove.flac:04145b0aabae45fb420b64090a05a3c8
gd87-01-30 t08 Beat It On Down The Line.flac:6ea56fb70b835307b494fa19c52ee0af
gd87-01-30 t09 Promised Land.flac:7325c047bbe810c505ce3c1c3adff94d
gd87-01-30 t10 China Cat Sunflower.flac:98a7f358213ede2f11baf021c3b23238
gd87-01-30 t11 I Know You Rider.flac:74a336eadb1c9303616b0112723b39a1
gd87-01-30 t12 Crowd.flac:a8298b15692ef476e4668c55027c5103
gd87-01-30 t13 Iko Iko.flac:c922bfa9ad8c02ac297755c00db060de
gd87-01-30 t14 Man Smart (Woman Smarter).flac:2e32b961d9746abb1e29681e9722dfde
gd87-01-30 t15 Ship Of Fools.flac:0f6321735c23a0ca8c36249523a6d117
gd87-01-30 t16 Estimated Prophet.flac:9727eef072aa5ec531ec4ba07bcee921
gd87-01-30 t17 Truckin'.flac:868a1c16cde7b3fbf83b73279cc0793d
gd87-01-30 t18 Drums.flac:91ee89165a5368221a77e4f0fe2043f4
gd87-01-30 t19 Space.flac:5bd3860e3133d131875526a099d5c20a
gd87-01-30 t20 The Other One.flac:12e73a8f579dd463cba80c464c84909a
gd87-01-30 t21 Wharf Rat.flac:b2d169c92161fe14fbf4758b70e06148
gd87-01-30 t22 Throwing Stones.flac:887a4ff9125c39adaf44bd429601801d
gd87-01-30 t23 Not Fade Away.flac:c488117341f6bec3dc40bbdf830458f9
gd87-01-30 t24 Not Fade Away Chant.flac:fecd681ad2a45b101350e0ed629ee1f7
gd87-01-30 t25 Not Fade Away.flac:cdd8ae0e6ec781783ef934ed070aceea
gd87-01-30 t26 Brokedown Palace.flac:45a1cc8930f4990d0e0ba3e24060c068
flac-md5
eb83fc75d8ccaa70f9cbd0a8eb3c37bd *gd87-01-30 t01 Crowd.flac
7ec2652ade596485755fa81c604d1957 *gd87-01-30 t02 Touch Of Grey.flac
290c0ade94a98b8dac5de12e9089204a *gd87-01-30 t03 New Minglewood Blues.flac
fccecf9f9e91a826e333a884be439b9d *gd87-01-30 t04 Candyman.flac
a4518f4cf120b2af337682e18cd4c880 *gd87-01-30 t05 Me & My Uncle.flac
fc1d068bd31c095ae4d85e6d1a586e9c *gd87-01-30 t06 Mexicali Blues.flac
29612b3c28a9e09f60345325c77a7907 *gd87-01-30 t07 When Push Comes To Shove.flac
24d4c66e1ee08fb448cfd03e1da6b464 *gd87-01-30 t08 Beat It On Down The Line.flac
1f3c6fc59ded4b96a5f05e7371499a4f *gd87-01-30 t09 Promised Land.flac
13223ec12c485a04e5241f0ade682f41 *gd87-01-30 t10 China Cat Sunflower.flac
fc188324d50e36c49eba5e99512a8b11 *gd87-01-30 t11 I Know You Rider.flac
a7fa4691cd810ead48750acb889d0d4d *gd87-01-30 t12 Crowd.flac
9bc81391b14a2a8cc88ebb90474e5a72 *gd87-01-30 t13 Iko Iko.flac
e4d847516719f7ae3a7ff6fc62baf951 *gd87-01-30 t14 Man Smart (Woman Smarter).flac
ace11946d4e170536b0b88857b440ac8 *gd87-01-30 t15 Ship Of Fools.flac
a8248e7d5fe2f9ba99ad137768febb7a *gd87-01-30 t16 Estimated Prophet.flac
947240d1b89c0bc7ea5177f70d29cd43 *gd87-01-30 t17 Truckin'.flac
33330c227ab5b05f5871812d1e561439 *gd87-01-30 t18 Drums.flac
10f6affe075036694888cb85b800b933 *gd87-01-30 t19 Space.flac
9bac219c9665e0f0ab1d8d2f503e06c0 *gd87-01-30 t20 The Other One.flac
42c433ac747240ab3ea882aa0d9815fa *gd87-01-30 t21 Wharf Rat.flac
e079b4286dcbb7a380c452d7243fbbc4 *gd87-01-30 t22 Throwing Stones.flac
7d755eb041ccb67d9ef5971c25065cf5 *gd87-01-30 t23 Not Fade Away.flac
49866a588483204e43624ed78cf0f796 *gd87-01-30 t24 Not Fade Away Chant.flac
fcf0dc0e34ba2ea9d98b4c95b31a5f49 *gd87-01-30 t25 Not Fade Away.flac
56c35cf38d28bd353ce28f79cab16aa6 *gd87-01-30 t26 Brokedown Palace.flac

Comments
Add Comment
Other Sources (comments)
AUD>DAT>CDR; via Easy Jim;... (1) SBD > MC > C > DAT > CD >... (1) flac16; Source:... (0) flac16; Recording... (0) flac16; Source:... (0) flac24; Recording... (0) flac16; Recording... (0) flac24; Recording... (0) flac16; Recording... (0)
Date User Comment