Browse Collections Artists Sources   Search Dates

Add Show    List Management    Help


Garcia 04/20/91
Warfield Theater, San Francisco, CA
Comments Add Comment    Source Collectors    Add to Collection    Add to Want List    History
Source # 141948 Other Sources
Entered by Joe Jupille
Checksums jg1991-04-20.ffp , jg1991-04-20.shntool_len.txt
Disc Counts 0 / 0
Media Size Compressed: 795 MB (833617920 bytes)
Date Circulated
Date Added
05/11/2018
05/12/2018
Source Summary JGB; flac1648; Schoeps CMC 34 > M1000 > Tao power supply > Panasonic SV-255; DAT Archived and Transferred By Stuccoholmes 2018 
Source Information - Download Text | Download Zip
Jerry Garcia Band
Saturday, April 20, 1991
Warfield Theater,
San Francisco, CA

Recording: Schoeps CMC 34 > M1000 > Tao power supply > Panasonic SV-255

Location:
Set 1, mics held at stomach @ 110 degrees, @ drink Rail, center
Set 2, mics held at stomach @ 110 degrees, @ drink Rail, left center

DAT Archived and Transferred By Stuccoholmes 2018
Edited and Mastered by Jamie Waddell
Track, Flac and Pack by John Wenzel
16bit 48kHz FLAC

-Set 1-
01 Cats Under The Stars
02 Twilight
03 Dear Prudence
04 I Shall Be Released
05 Money Honey
06 Rueben And Cerise
07 Let's Spend the Night Together

-Set 2-
08 Shining Star
09 Waiting For A Miracle
10 Struggling Man
11 Let It Rock
12 When The Hunter Gets Captured By The Game
13 That Lucky Old Sun
14 Everybody Needs Somebody To Love

Notes: Reuben And Cerise has a tiny patch from shnid 15083
Hundreds of claps transparently removed


originally shared at www.shnflac.net

Show Checksums
jg1991-04-20.ffp
01 - Cats Under The Stars.flac:3f1c6ca8a13312b779477f57a6afc643
02 - Twilight.flac:04eeccb400d8041ffcb89f681f9e6b80
03 - Dear Prudence.flac:e142dfa66d51f94cf56edfc45c650c02
04 - I Shall Be Released.flac:8ea203db1858f1db8372446297d5cb3a
05 - Money Honey.flac:ce10dc6c1ee692e83633df85376e1d4c
06 - Reuben And Cerise.flac:75f27ec0d992ce8eb8e7a1aaee6717e8
07 - Let's Spend The Night Together.flac:d25722c2d3027997b927c1779e86bce2
08 - Shining Star.flac:fc5a886e54103a9eebd5ba37a824d8c4
09 - Waiting On A Miracle.flac:ee492365a8d40f667db1ff40d8ea3792
10 - Struggling Man.flac:929261cc56a5f5f1e16242b28fe890a7
11 - Let It Rock.flac:e629708408537279266669aa9638c96e
12 - When The Hunter Gets Captured By The Game.flac:9b9e7ed96c818714ac463dd0f66d4912
13 - That Lucky Old Sun.flac:de5942f2c5afa66ec86b0891be622a2f
14 - Everybody Needs Somebody To Love.flac:17a2a9ae2c090256e782b0782930603f
jg1991-04-20.shntool_len.txt
length expanded size cdr WAVE problems fmt ratio filename
11:15.133 129625644 B cxx -- ---xx flac 0.5377 01 - Cats Under The Stars.flac
8:25.787 97111084 B cxx -- ---xx flac 0.4935 02 - Twilight.flac
15:04.693 173701164 B cxx -- ---xx flac 0.5340 03 - Dear Prudence.flac
10:00.600 115315244 B cxx -- ---xx flac 0.4854 04 - I Shall Be Released.flac
6:36.720 76170284 B cxx -- ---xx flac 0.5433 05 - Money Honey.flac
7:56.973 91578924 B cxx -- ---xx flac 0.5798 06 - Reuben And Cerise.flac
11:18.080 130191404 B cxx -- ---xx flac 0.5829 07 - Let's Spend The Night Together.flac
10:02.667 115712044 B cxx -- ---xx flac 0.5116 08 - Shining Star.flac
7:09.253 82416684 B cxx -- ---xx flac 0.5318 09 - Waiting On A Miracle.flac
9:26.787 108823084 B cxx -- ---xx flac 0.5411 10 - Struggling Man.flac
9:02.320 104125484 B cxx -- ---xx flac 0.5726 11 - Let It Rock.flac
7:03.813 81372204 B cxx -- ---xx flac 0.4603 12 - When The Hunter Gets Captured By The Game.flac
10:28.707 120711724 B cxx -- ---xx flac 0.4729 13 - That Lucky Old Sun.flac
11:45.053 135370284 B cxx -- ---xx flac 0.5972 14 - Everybody Needs Somebody To Love.flac
135:36.587 1562225256 B 0.5336 (14 files)

Comments
Add Comment
Other Sources (comments)
Jerry Garcia Band: MAD (FOB... (0)
Date User Comment