Browse Collections Artists Sources   Search Dates

Add Show    List Management    Help


Grateful Dead 07/10/81
St. Paul Civic Center, St. Paul, MN
Comments Add Comment    Source Collectors    Add to Collection    Add to Want List    History
Source # 14195 Other Sources
Entered by Gary Field
Checksums shn-md5 , st5
Disc Counts 2 / 3
Media Size
Date Circulated
Date Added
12/04/2002
01/04/2003
Source Summary Recording by Ohr Weinberg. MAC w/ Sony ECM F's BOS>Sony TC-D5M>DAT>CDR>EAC>SHN 
  Archive
Source Information - Download Text | Download Zip
Grateful Dead - July 10, 1981
St. Paul Civic Arena
St. Paul, MN

Ohr Weinberg's MAC w/ Sony ECM F's BOS>Sony TC-D5M>DAT>CDR>EAC>SHN

Set 1:
d1t01 - Jack Straw
d1t02 - Sugaree
d1t03 - Mama Tried >
d1t04 - Mexicali Blues
d1t05 - Loser
d1t06 - Brent Tech Problems > Cassidy
d1t07 - Brown-Eyed Women >
d1t08 - C.C. Rider
d1t09 - Ramble On Rose
d1t10 - Let It Grow >
d1t11 - Don't Ease Me In

Set 2:
d2t01 - Samson and Delilah
d2t02 - Althea
d2t03 - Estimated Prophet >
d2t04 - Eyes Of The World >
d2t05 - Jam >
d2t06 - Drums (tape flip)
d3t01 - Drums continued >
d3t02 - Space >
d3t03 - Uncle John's Band >
d3t04 - Playin' In The Band >
d3t05 - China Doll >
d3t06 - Uncle John's Band >
d3t07 - Playin' In The Band >
d3t08 - Around & Around >
d3t09 - Good Lovin'

Encore:
d3t10 - Casey Jones

EAC'd and SHN'd by Laura ([email protected])


SHNTOOL LEN OUTPUT:

    length     expanded size    cdr  WAVE problems  fmt   ratio  filename
     6:25.12       67942268 B   ---   --   ---xx    shn  0.6890  gd81-07-10d1t01.shn
    12:35.17      133222028 B   ---   --   ---xx    shn  0.6352  gd81-07-10d1t02.shn
     2:39.63       28195820 B   ---   --   ---xx    shn  0.6582  gd81-07-10d1t03.shn
     4:36.47       48796988 B   ---   --   ---xx    shn  0.6757  gd81-07-10d1t04.shn
     7:35.72       80431388 B   ---   --   ---xx    shn  0.6284  gd81-07-10d1t05.shn
     6:52.66       72832076 B   ---   --   ---xx    shn  0.6450  gd81-07-10d1t06.shn
     5:47.71       61377836 B   ---   --   ---xx    shn  0.6616  gd81-07-10d1t07.shn
     7:59.19       84540332 B   ---   --   ---xx    shn  0.6683  gd81-07-10d1t08.shn
     7:59.73       84667340 B   ---   --   ---xx    shn  0.6310  gd81-07-10d1t09.shn
    12:14.55      129607004 B   ---   --   ---xx    shn  0.6685  gd81-07-10d1t10.shn
     3:32.39       37488572 B   ---   --   ---xx    shn  0.7036  gd81-07-10d1t11.shn
     7:18.40       77357324 B   ---   --   ---xx    shn  0.7030  gd81-07-10d2t01.shn
    10:13.05      108145004 B   ---   --   ---xx    shn  0.6391  gd81-07-10d2t02.shn
    10:44.60      113742764 B   ---   --   ---xx    shn  0.6706  gd81-07-10d2t03.shn
    11:53.39      125864972 B   ---   --   ---xx    shn  0.6715  gd81-07-10d2t04.shn
     3:01.13       31959020 B   ---   --   ---xx    shn  0.6812  gd81-07-10d2t05.shn
     2:59.04       31585052 B   ---   --   ---xx    shn  0.6580  gd81-07-10d2t06.shn
     8:14.45       87247484 B   ---   --   ---xx    shn  0.5964  gd81-07-10d3t01.shn
     6:14.28       66039500 B   ---   --   ---xx    shn  0.5149  gd81-07-10d3t02.shn
     7:31.46       79664636 B   ---   --   ---xx    shn  0.6589  gd81-07-10d3t03.shn
     6:35.58       69814460 B   ---   --   ---xx    shn  0.6622  gd81-07-10d3t04.shn
     5:40.58       60112460 B   ---   --   ---xx    shn  0.5677  gd81-07-10d3t05.shn
     1:06.11       11668316 B   ---   --   ---xx    shn  0.6719  gd81-07-10d3t06.shn
     2:35.13       27372620 B   ---   --   ---xx    shn  0.6834  gd81-07-10d3t07.shn
     3:49.20       40442684 B   ---   --   ---xx    shn  0.6699  gd81-07-10d3t08.shn
     7:22.45       78074684 B   ---   --   ---xx    shn  0.7076  gd81-07-10d3t09.shn
     5:52.17       62132828 B   ---   --   ---xx    shn  0.6877  gd81-07-10d3t10.shn
   179:32.61     1900325460 B                            0.6532  (27 files)


Show Checksums
shn-md5
670df4e876cd8e01cec7a9e7f6d254ba *gd81-07-10d1t11.shn
6c5ed207cae7c9468b6e93ee0aabd52f *gd81-07-10d1t01.shn
4c463903eceda073c84c9a5f80b3f72b *gd81-07-10d1t02.shn
4240f833193a7e1ad4f8fdaac37d34c4 *gd81-07-10d1t03.shn
5a7531ad66cc08f72d463e45a71b7cbc *gd81-07-10d1t04.shn
715748e200189268e0235296e185af10 *gd81-07-10d1t05.shn
9feca7db0b62b0411de061945c84508d *gd81-07-10d1t06.shn
53229f40fc751f8eca02426825b71cbe *gd81-07-10d1t07.shn
90219394122b91eea78521767259844c *gd81-07-10d1t08.shn
e81e09d5c5afff436140bd959b0cc402 *gd81-07-10d1t09.shn
ec8ffe47e1671f53fcd5e999c2e4fbba *gd81-07-10d1t10.shn
c035b175639070ef8a323dc423074bba *gd81-07-10d2t01.shn
2ab6e03ba734b895b927f5c1a850511a *gd81-07-10d2t02.shn
b5b095dab89440920643c3f4ae11668c *gd81-07-10d2t03.shn
9b557eaa8029d45a6ce29722dcdf801b *gd81-07-10d2t04.shn
d75a3cdf1dcc33af2a6e1e1446c11812 *gd81-07-10d2t05.shn
09c162749e01fdd470fa64512ae7183f *gd81-07-10d2t06.shn
28bb16c467a4f45fb5b4a18e0b9a31aa *gd81-07-10d3t01.shn
6f6aa443d81487ad28fa3d0ef0c292ad *gd81-07-10d3t02.shn
9cfa5383615b9a9680ec2ac3cd4062b3 *gd81-07-10d3t03.shn
22fa3ece8156f606b1321c551939f4fa *gd81-07-10d3t04.shn
d1a2d2210fe9c3927a95fdab3cf33fba *gd81-07-10d3t05.shn
62bf47c0adc0f97a9602b46f0d251762 *gd81-07-10d3t06.shn
5f40c97577b0099f9cdf40c94475eec1 *gd81-07-10d3t07.shn
73d91456e343dd466ffc28a90dbff4f0 *gd81-07-10d3t08.shn
d638ced0d81f49d1d3e3a821f6eb875a *gd81-07-10d3t09.shn
1bc4cba26a57c65e84ecefdd477cde7d *gd81-07-10d3t10.shn
st5
84618907030f618ec3b0c0a8f9bb7194 [shntool] gd81-07-10d1t01.shn
018aa9f02c06d1d73f6978d935ca16bf [shntool] gd81-07-10d1t02.shn
0d30c1a2e449e85ebbf02dff8c0a94ee [shntool] gd81-07-10d1t03.shn
29c020958f1f2c77bc1a6f34851bfae3 [shntool] gd81-07-10d1t04.shn
e8b54205eded2c9e6d6e76c11a27940a [shntool] gd81-07-10d1t05.shn
7c218b8a18b6c22b6095ceff5897fc4d [shntool] gd81-07-10d1t06.shn
efffa1446fc2c7d58682896d1bdc0169 [shntool] gd81-07-10d1t07.shn
d367c1a5118b2f00392acb14e6fb18d0 [shntool] gd81-07-10d1t08.shn
c5f1e2f5a49993d8a615a33c279716d5 [shntool] gd81-07-10d1t09.shn
f016b3bc35fef813fa82d320316942bc [shntool] gd81-07-10d1t10.shn
88338c6f12e05df488c304e3ce90910a [shntool] gd81-07-10d1t11.shn
02e6efbab046e07397b4825c392280c3 [shntool] gd81-07-10d2t01.shn
abf73da8de27162a99868716b0819f2f [shntool] gd81-07-10d2t02.shn
60a47fdf5716b5a262e5ebe3a477d4ea [shntool] gd81-07-10d2t03.shn
979be769749da3dad0dd3bb2b4b5d063 [shntool] gd81-07-10d2t04.shn
8279f02264a41e1e9888ede98e53f791 [shntool] gd81-07-10d2t05.shn
6a9f88a284810b6a18d20e397bf521c3 [shntool] gd81-07-10d2t06.shn
902f2977de7ad0b1022dc79b0f5ab435 [shntool] gd81-07-10d3t01.shn
e086de6b4bf350439931ac54ca9096d1 [shntool] gd81-07-10d3t02.shn
f2fef319ec96ab1819c3f1bb5426220e [shntool] gd81-07-10d3t03.shn
0eb53d7d3e18e121e13261d8768feec6 [shntool] gd81-07-10d3t04.shn
324ac1f9a710ae710c3fcdbee8ef6dc8 [shntool] gd81-07-10d3t05.shn
854215a258b86afac40e7112d6ca19de [shntool] gd81-07-10d3t06.shn
104dbd9fcd45159531275d3682448256 [shntool] gd81-07-10d3t07.shn
b2501edac417f548666c8bb23b915f28 [shntool] gd81-07-10d3t08.shn
a31529a28f508c55ba9007cd437e4b88 [shntool] gd81-07-10d3t09.shn
24accbadd3d6cb7aed3fde8731bf871d [shntool] gd81-07-10d3t10.shn

Comments
Add Comment
Other Sources (comments)
Originally mislabeled as... (0) flac16; Recording... (0) flac16; AUD: Unknown... (0) flac24; 2nd Set AUD:... (0) flac16; 2nd Set AUD:... (0) flac16/48kHz;... (0)
Date User Comment
04/10/2016 nfagdtrfb Correct track list:

Set 1:
d1t01 - Jack Straw
d1t02 - Sugaree
d1t03 - Mama Tried >
d1t04 - Mexicali Blues
d1t05 - Loser
d1t06 - Brent Tech Problems > Cassidy
d1t07 - Brown-Eyed Women >
d1t08 - C.C. Rider
d1t09 - Ramble On Rose
d1t10 - Let It Grow >
d1t11 - Don't Ease Me In

Set 2:
d2t01 - Samson and Delilah
d2t02 - Althea
d2t03 - Estimated Prophet >
d2t04 - Eyes Of The World >
d2t05 - Jam >
d2t06 - Drums (tape flip)
d3t01 - Drums continued >
d3t02 - Space >
d3t03 - Uncle John's Band >
d3t04 - Playin' In The Band >
d3t05 - China Doll >
d3t06 - Uncle John's Band >
d3t07 - Playin' In The Band >
d3t08 - Around & Around >
d3t09 - Good Lovin'

Encore:
d3t10 - Casey Jones
04/12/2016 Wharfrat73 Updated track list.

Had been marked d1t07 - Cassidy, Brown-Eyed Women