Browse Collections Artists Sources   Search Dates

Add Show    List Management    Help


Grateful Dead 07/15/88
Greek Theatre, U. Of California, Berkeley, CA
Comments Add Comment    Source Collectors    Add to Collection    Add to Want List    History
Source # 141962 Other Sources
Entered by Gary Field
Checksums flac-md5
Disc Counts 0 / 0
Media Size Compressed: 3.01 GB (3229614080 bytes)
Uncompressed: 5.15 GB (5525497788 bytes)
Date Circulated
Date Added
05/14/2018
05/14/2018
Source Summary flac16/48kHz; 5.1 LPCM Surround Sound (48k) - SBD (shnid = 141922) Recording Info: UltraMatrix SBD > Cassette Master (TDK MA-XG90); Transfer Info: Cassette Master (Nakamichi CR-7A) > Tascam DA-3000 (DSF 1-bit/5.6 MHz) > KORG AudioGate 4 > Samplitude Pro X3 Suite > FLAC/24; All Transfers and Mastering By Charlie Miller + AUD (shnid = 137888) NAK-CM100-CP4 Shotguns(2) AT-Shotguns model unknown(2) > Tascam PortaOne 4-Track Cassette w/DBX Type II on > Maxell XLII-S90 - Set up dead center on hill behind seating and walkway on 2 mic stands 10-12' high; XLII-S90 > Onkyo TA-2027 > dbx-224X processer > Carver HR-722 > Sony M-10 (Wave 16 bit/tracked) > Soundforge 9 (fades for tape flipps) > encoded to FLAC (level 8) w/ TLH - mixing by Kevin Tobin; Fixed version in circulation 
  Archive
Source Information - Download Text | Download Zip
Grateful Dead
July 15, 1988
Greek Theatre
University Of California
Berkeley, CA

5.1 LPCM Surround Sound Mix (48k)

Set 1:
s1t01 - Tuning
s1t02 - Shakedown Street
s1t03 - Walkin' Blues
s1t04 - Friend Of The Devil
s1t05 - Queen Jane Approximately
s1t06 - Dire Wolf
s1t07 - Never Trust A Woman
s1t08 - Cassidy >
s1t09 - Bertha

Set 2:
s2t01 - Scarlet Begonias >
s2t02 - Fire On The Mountain
s2t03 - Man Smart (Woman Smarter)
s2t04 - Ship Of Fools
s2t05 - Estimated Prophet >
s2t06 - Drums >
s2t07 - Space >
s2t08 - I Need A Miracle >
s2t09 - The Wheel >
s2t10 - Gimme Some Lovin' >
s2t11 - Morning Dew

Encore:
s2t12 - Turn On Your Lovelight

Jerry Garcia - Guitar
Bob Weir - Guitar
Brent Mydland - Keyboards
Phil Lesh - Bass
Bill Kreutzmann - Drums
Mickey Hart - Drums

5.1 LPCM Surround Sound (48k) mixed in Adobe Audition CC 2014 using the following sources:

Audio Information:
Original  SBD (shnid = 141922)

Recording Info:
UltraMatrix SBD > Cassette Master (TDK MA-XG90)

Transfer Info:
Cassette Master (Nakamichi CR-7A) > Tascam DA-3000 (DSF 1-bit/5.6 MHz) >
KORG AudioGate 4 > Samplitude Pro X3 Suite > FLAC/24
(1 DVD FLAC)

All Transfers and Mastering By Charlie Miller
[email protected]
May 9, 2018

Notes:
-- Two sets of masters were used to make this show complete

-- Two sets of master were used to make this show complete
-- You can hear the rain hitting the ambient mics in the first set
-- Sugaree and Man Smart (Woman Smarter) with Bruce Hornsby on the Accordion

Original  AUD (shnid = 137888)

NAK-CM100-CP4 Shotguns(2) AT-Shotguns model unknown(2) >
Tascam PortaOne 4-Track Cassette w/DBX Type II on >
Maxell XLII-S90 - Set up dead center on hill behind
seating and walkway on 2 mic stands 10-12' high

XLII-S90 > Onkyo TA-2027 > dbx-224X processer > Carver HR-722 >
Sony M-10 (Wave 16 bit/tracked) > Soundforge 9 (fades for tape flipps) >
encoded to FLAC (level 8) w/ TLH

AUD was patched with the following:
AUD (shnid = 140749)

Ted Mattes' Master Audience PCM (Nakamichi DMP-100 deck, Sony ESX-HiFi/L750 tape); Schoeps CMC3/MK41 mics, ortf (OTS)

Transfer Info:
Master PCM (Sony SL-10)> Sony PCM 601ESD > Behringer Ultramatch Pro > Tascam DA-3000 (16 bit/44.1k)> Adobe Audition 3.0 > TLH flac16
---------------------------------------------------------
- Mixed by [email protected]
- FLAC conversion 14-MAY-2018 - Trader Little Helper
- Tagged 14-MAY-2018 - Tag&Rename
---------------------------------------------------------
Brokedown House Production

    length     expanded size    cdr  WAVE problems  fmt   ratio  filename
     0:58.986      33989188 B   cxx   he   -----    wav  1.0000  gs1988-07-15s1t01.wav
    13:11.337     455823364 B   cxx   he   -----    wav  1.0000  gs1988-07-15s1t02.wav
     7:53.139     272541316 B   cxx   he   -----    wav  1.0000  gs1988-07-15s1t03.wav
     9:50.527     340156804 B   cxx   he   -----    wav  1.0000  gs1988-07-15s1t04.wav
     7:55.254     273759556 B   cxx   he   -----    wav  1.0000  gs1988-07-15s1t05.wav
     3:40.414     126971716 B   cxx   he   -----    wav  1.0000  gs1988-07-15s1t06.wav
     6:26.159     222440836 B   cxx   he   -----    wav  1.0000  gs1988-07-15s1t07.wav
     6:06.682     211222084 B   cxx   he   -----    wav  1.0000  gs1988-07-15s1t08.wav
     7:27.102     257544088 B   cxx   he   -----    wav  1.0000  gs1988-07-15s1t09.wav
     8:28.440     292874676 B   cxx   he   -----    wav  1.0000  gs1988-07-15s2t01.wav
    12:38.260     436770996 B   cxx   he   -----    wav  1.0000  gs1988-07-15s2t02.wav
     7:23.440     255434676 B   cxx   he   -----    wav  1.0000  gs1988-07-15s2t03.wav
     7:22.440     254858676 B   cxx   he   -----    wav  1.0000  gs1988-07-15s2t04.wav
    12:36.260     435618996 B   cxx   he   -----    wav  1.0000  gs1988-07-15s2t05.wav
     7:56.170     274287156 B   cxx   he   -----    wav  1.0000  gs1988-07-15s2t06.wav
     7:12.100     248902836 B   cxx   he   -----    wav  1.0000  gs1988-07-15s2t07.wav
     4:09.920     143967156 B   cxx   he   -----    wav  1.0000  gs1988-07-15s2t08.wav
     5:04.300     175290036 B   cxx   he   -----    wav  1.0000  gs1988-07-15s2t09.wav
     5:18.820     183653556 B   cxx   he   -----    wav  1.0000  gs1988-07-15s2t10.wav
    12:42.960     439478196 B   cxx   he   -----    wav  1.0000  gs1988-07-15s2t11.wav
     5:29.685     189911880 B   cxx   he   -----    wav  1.0000  gs1988-07-15s2t12.wav
   159:52.395    5525497788 B                            1.0000  (21 files)




Show Checksums
flac-md5
df4c7b5e862ab829651ab011fc22a0bc *gd1988-07-15s1t01.flac
b686305ffcbc1c26c77cadbea27cac5c *gd1988-07-15s1t02.flac
7201bdf31be95db0e5fce43c1a3746a3 *gd1988-07-15s1t03.flac
5435da1973c8143eb3ea68640dccd386 *gd1988-07-15s1t04.flac
d93d457e2bb52cc17aa5e00763cf84e6 *gd1988-07-15s1t05.flac
887570c3f3c1d329bffcdee744988baa *gd1988-07-15s1t06.flac
1e1db3b3534db812213b18bd11771fa8 *gd1988-07-15s1t07.flac
3210c98845ec26118445dd37afc2bf60 *gd1988-07-15s1t08.flac
61dbd58b52fe4726fad33a96e62bf646 *gd1988-07-15s1t09.flac
b8d3d2277d8cfed9f075f1e7fa974ca1 *gd1988-07-15s2t01.flac
27dd8fb1c12129439a255365b5670b75 *gd1988-07-15s2t02.flac
d231d0b8512a147d60523853c90f1078 *gd1988-07-15s2t03.flac
c3f65cca81b1e5296c9e9ced431d65db *gd1988-07-15s2t04.flac
21e5885aff5ee47b299a936d17cb16e7 *gd1988-07-15s2t05.flac
0e56d187c773a3e347f806cff30b17f6 *gd1988-07-15s2t06.flac
02e47faafec219a8155facd5921b85dd *gd1988-07-15s2t07.flac
10eed6867a0b8f4a46c65d779fd20473 *gd1988-07-15s2t08.flac
c5af6dbd09e244b254b288ef4f39c625 *gd1988-07-15s2t09.flac
bb0b0654199b0aacec81cbb922479b6b *gd1988-07-15s2t10.flac
1629731cc360243b49a65365416717d3 *gd1988-07-15s2t11.flac
64fbb3437c7a55fe78298d29bd59bea8 *gd1988-07-15s2t12.flac

Comments
Add Comment
Other Sources (comments)
2nd Row Behind Healy (see... (3) Ultramatrix (SBD/AUD mix)>... (2) Sources: Primary Source:... (0) flac16; Seamless fix... (2) flac16;... (0) flac16; Fixed... (1) flac24; Some file... (0) flac16; Ted Mattes'... (0) flac24; Recording... (0) flac16; Patched... (0) flac16; Matrix 2... (0) DTS-Audio-CD 5.1... (0) flac16; Recording... (0) flac16/48kHz; 5.1... (0) flac24; Recording... (0)
Date User Comment