Browse Collections Artists Sources   Search Dates

Add Show    List Management    Help


Garcia 04/21/91
Warfield Theatre, San Francisco, CA
Comments Add Comment    Source Collectors    Add to Collection    Add to Want List    History
Source # 141963 Other Sources
Entered by Joe Jupille
Checksums jg1991-04-21.shntool_len.txt , jg1991-04-21.ffp
Disc Counts 0 / 0
Media Size Compressed: 858 MB (899678208 bytes)
Date Circulated
Date Added
05/14/2018
05/14/2018
Source Summary JGB; flac1648; Rob Darroch's Schoeps CMC 34 > M1000 > Tao power supply > Panasonic SV-255; Recorded by Rob Darroch (RIP); DAT Archived and Transferred By Stuccoholmes 2018 
Source Information - Download Text | Download Zip
Jerry Garcia Band
Sunday, April 21, 1991
Warfield Theater,
San Francisco, CA

Recording: Schoeps CMC 34 > M1000 cables > Tao power supply > Panasonic SV-255

Location: mics @ 110 degrees at the drink rail

Recorded by Rob Darroch (RIP)

DAT Archived and Transferred By Stuccoholmes 2018
Edited and Mastered by Jamie Waddell
Track, Flac and Pack by John Wenzel
16bit 48kHz FLAC

-Set One-
01 tuning
02 How Sweet It Is
03 He Ain't Give You None
04 C'est La Vie
05 Like A Road
06 When The Hunter Gets Captured By The Game
07 Lay Down Sally
08 Let's Spend The Night Together

-Set Two-
09 tuning
10 The Way You Do The Things You Do
11 And It Stoned Me
12 Think
13 Twilight
14 Don't Let Go
15 My Sisters And Brothers
16 Midnight Moonlight

Notes: More than a thousand claps transparently removed.
The third of only four versions of Twilight performed by Jerry.

originally shared at www.shnflac.net

Show Checksums
jg1991-04-21.shntool_len.txt
length expanded size cdr WAVE problems fmt ratio filename
1:27.360 16773164 B cxx -- ---xx flac 0.4059 01 - tuning.flac
8:29.267 97779244 B cxx -- ---xx flac 0.5473 02 - How Sweet It Is.flac
10:13.613 117813804 B cxx -- ---xx flac 0.5377 03 - He Ain't Give You None.flac
10:34.347 121794604 B cxx -- ---xx flac 0.5641 04 - C'est La Vie.flac
10:07.040 116551724 B cxx -- ---xx flac 0.4913 05 - Like A Road.flac
6:57.213 80105004 B cxx -- ---xx flac 0.4836 06 - When The Hunter Gets Captured By The Game.flac
11:21.867 130918444 B cxx -- ---xx flac 0.5083 07 - Lay Down Sally.flac
12:38.267 145587244 B cxx -- ---xx flac 0.5980 08 - Let's Spend The Night Together.flac
3:21.013 38594604 B cxx -- ---xx flac 0.3994 09 - tuning.flac
12:56.027 148997164 B cxx -- ---xx flac 0.5496 10 - The Way You Do The Things You Do.flac
10:05.160 116190764 B cxx -- ---xx flac 0.5219 11 - And It Stoned Me.flac
8:20.493 96094764 B cxx -- ---xx flac 0.5768 12 - Think.flac
7:49.360 90117164 B cxx -- ---xx flac 0.5315 13 - Twilight.flac
19:49.373 228359724 B cxx -- ---xx flac 0.5651 14 - Don't Let Go.flac
4:07.467 47513644 B cxx -- ---xx flac 0.5160 15 - My Sisters And Brothers.flac
6:05.680 70210604 B cxx -- ---xx flac 0.6103 16 - Midnight Moonlight.flac
144:23.547 1663401664 B 0.5409 (16 files)
jg1991-04-21.ffp
01 - tuning.flac:a1880ed831c6e7b5be53ce3aba953210
02 - How Sweet It Is.flac:e704ce72a23443f6eff5253749b5f877
03 - He Ain't Give You None.flac:6ea5632f864ba4feb5d427af087421dc
04 - C'est La Vie.flac:6bed1ec9befbe5db5788d19ddb6b3569
05 - Like A Road.flac:6c490f1a9c9404fe4fe1cbc8f31b213b
06 - When The Hunter Gets Captured By The Game.flac:700c2d01a38c6947d702a3badf397a5e
07 - Lay Down Sally.flac:3df10a19ca0805cf43204cdb49cd812a
08 - Let's Spend The Night Together.flac:081890ee8fd54542fd19412b1f306ca1
09 - tuning.flac:8d85dfbc3fb51ee8929f83f5b4519ce1
10 - The Way You Do The Things You Do.flac:e93ce10dd91b500412f189c9c1b218e3
11 - And It Stoned Me.flac:f8222f1a6f25dfd90df0d24ec1210053
12 - Think.flac:4af1c2c138d99bc72cc5bb56bba77522
13 - Twilight.flac:c6de5ac592322ead7e255b1413bbd4cd
14 - Don't Let Go.flac:0f92a2ed4141420f95d6a215af39f9b0
15 - My Sisters And Brothers.flac:1bce6edfcb10c7c08020563d0852f4d1
16 - Midnight Moonlight.flac:d640d24fd0f4464d2494cdb8a608dad3

Comments
Add Comment
Other Sources (comments)
Jerry Garcia Band: Dank... (0)
Date User Comment