Browse Collections Artists Sources   Search Dates

Add Show    List Management    Help


Grateful Dead 04/02/87
The Centrum, Worcester, MA
Comments Add Comment    Source Collectors    Add to Collection    Add to Want List    History
Source # 141969 Other Sources
Entered by Matt Vernon
Checksums ffp , flac-md5
Disc Counts 0 / 0
Media Size
Date Circulated
Date Added
05/16/2018
05/16/2018
Source Summary flac16; Set 2 Source Info: Oade's Master (FOB) Audience PCM; Schoeps CMC4/MK41 mics > Oade M118 > Oade modified Sony PCM-F1; Transfer Info: Master Oade PCM > Sek'd Prodif > Samplitude (.wav 16-bit/44.1k)> hard disk > Adobe Audition 3.0 > TLH flac16 
  Archive
Source Information - Download Text | Download Zip
Grateful Dead
The Centrum
Worcester, MA
Thursday  April 2nd, 1987

Source Info:
Oade's Master (FOB) Audience PCM; Schoeps CMC4/MK41 mics > Oade M118 > Oade modified Sony PCM-F1

Transfer Info:
Master Oade PCM > Sek'd Prodif > Samplitude (.wav 16-bit/44.1k)> hard disk > Adobe Audition 3.0 > TLH flac16

Notes:
- Thanks to the Oade brothers and crew for their master recording(s), as well as a proper transfer to hard disk
- Thanks to Blake Jacobs for the hard disk
- Thanks to Charlie Miller for coordinating this effort
- Another fine Oade capture

Mastered by Scott Clugston
May 10, 2018

Set Two:
s2t01 - Crowd
s2t02 - Scarlet Begonias >
s2t03 - Fire On The Mountain
s2t04 - Looks Like Rain
s2t05 - Eyes Of The World >
s2t06 - Drums >
s2t07 - Space >
s2t08 - Gimme Some Lovin' >
s2t09 - The Wheel >
s2t10 - Black Peter >
s2t11 - Around And Around >
s2t12 - Good Lovin'
s2t13 - Encore Break
s2t14 - Black Muddy River



    length     expanded size    cdr  WAVE problems  fmt   ratio  filename
     1:25.36       15078716 B   ---   --   ---xx   flac  0.4940  gd87-04-02 s2 t01 Crowd.flac
     8:14.14       87174572 B   ---   --   ---xx   flac  0.6333  gd87-04-02 s2 t02 Scarlet Begonias.flac
     9:35.28      101495900 B   ---   --   ---xx   flac  0.6232  gd87-04-02 s2 t03 Fire On The Mountain.flac
     7:52.12       83289068 B   ---   --   ---xx   flac  0.5994  gd87-04-02 s2 t04 Looks Like Rain.flac
     7:05.28       75035900 B   ---   --   ---xx   flac  0.6215  gd87-04-02 s2 t05 Eyes Of The World.flac
    10:09.11      107453516 B   ---   --   ---xx   flac  0.5323  gd87-04-02 s2 t06 Drums.flac
     6:08.28       64981100 B   ---   --   ---xx   flac  0.4283  gd87-04-02 s2 t07 Space.flac
     4:35.68       48669980 B   ---   --   ---xx   flac  0.6380  gd87-04-02 s2 t08 Gimme Some Lovin'.flac
     4:06.56       43526156 B   ---   --   ---xx   flac  0.6195  gd87-04-02 s2 t09 The Wheel.flac
     9:28.27      100258748 B   ---   --   ---xx   flac  0.5804  gd87-04-02 s2 t10 Black Peter.flac
     3:37.45       38384684 B   ---   --   ---xx   flac  0.6494  gd87-04-02 s2 t11 Around & Around.flac
     8:14.55       87271004 B   ---   --   ---xx   flac  0.6546  gd87-04-02 s2 t12 Good Lovin'.flac
     2:04.37       21960668 B   ---   --   ---xx   flac  0.5560  gd87-04-02 s2 t13 Encore Break.flac
     7:08.25       75558044 B   ---   --   ---xx   flac  0.5525  gd87-04-02 s2 t14 Black Muddy River.flac
    89:46.20      950138056 B                            0.5891  (14 files)



Show Checksums
ffp
gd87-04-02 s2 t01 Crowd.flac:a13675a8e8a0f790ad2cabd6c0289ff5
gd87-04-02 s2 t02 Scarlet Begonias.flac:d3c6bd1ee59166166212157366afd7e1
gd87-04-02 s2 t03 Fire On The Mountain.flac:880f21c4115a665942805c9b11ccbc63
gd87-04-02 s2 t04 Looks Like Rain.flac:5191c47e79784be5eae73d666cca80cd
gd87-04-02 s2 t05 Eyes Of The World.flac:c461e8546dad6464229e91deb9983069
gd87-04-02 s2 t06 Drums.flac:e4997f1c9fc50b9da57fa8eb87fd06c8
gd87-04-02 s2 t07 Space.flac:194f349d72635761c8cec760b9743121
gd87-04-02 s2 t08 Gimme Some Lovin'.flac:4343097c94a9c140d056f4d0db3e5dfc
gd87-04-02 s2 t09 The Wheel.flac:53fbd651ec6041873db0c0278788b850
gd87-04-02 s2 t10 Black Peter.flac:74d15784e31616cd6c7ba95f60cb3dce
gd87-04-02 s2 t11 Around & Around.flac:4423997451f7c9d15690dff8cbaebd2c
gd87-04-02 s2 t12 Good Lovin'.flac:f39b78f4826a4610326b3a871eace93d
gd87-04-02 s2 t13 Encore Break.flac:77d572bc259a23cec8e55549380185cd
gd87-04-02 s2 t14 Black Muddy River.flac:84160c219cd07b5fce7a62589497b4b1
flac-md5
cb3df52e1c4c099794565c5e32231390 *gd87-04-02 s2 t01 Crowd.flac
041618dfdde56fbc59be7298bdcc5f94 *gd87-04-02 s2 t02 Scarlet Begonias.flac
2ef2b83c4ef6586ec1053129268e79d0 *gd87-04-02 s2 t03 Fire On The Mountain.flac
50e537a9036c9083b81054cd195a435d *gd87-04-02 s2 t04 Looks Like Rain.flac
292202bbd38623979c180bb6052dda02 *gd87-04-02 s2 t05 Eyes Of The World.flac
a8d40ca68ec9f1d23b5307fb49a1b911 *gd87-04-02 s2 t06 Drums.flac
ff236a66c8c18ceaba8a2453464d853e *gd87-04-02 s2 t07 Space.flac
8c86262a698a68cd63b99f9fc4b19d35 *gd87-04-02 s2 t08 Gimme Some Lovin'.flac
281b7d62ffe4375ee3dcca9b0b6e925b *gd87-04-02 s2 t09 The Wheel.flac
78dc55819e08bcb29ed48a228dd47d94 *gd87-04-02 s2 t10 Black Peter.flac
f8c5f6a8edfa060bd6d9a87313c863e5 *gd87-04-02 s2 t11 Around & Around.flac
391fb0435abd34ec7973c4e6cabb1afb *gd87-04-02 s2 t12 Good Lovin'.flac
551b30e16fd66a2eae3b92e03a5393ec *gd87-04-02 s2 t13 Encore Break.flac
0873eef5d351b292817724149e06f58d *gd87-04-02 s2 t14 Black Muddy River.flac

Comments
Add Comment
Other Sources (comments)
AUD>PCM>DAT>CDR; via... (0) flac16; Recording... (0) flac16; nak 300 mics... (0) flac16; Recording... (0) flac16; Nakamichi... (0) flac24; Master... (0) flac16; Master... (0) flac24; Recording... (0) flac16; Recording... (0) flac24; source: nak... (1) flac16; source: nak... (2) flac16; Recording... (0) flac24; Recording... (0)
Date User Comment