Browse Collections Artists Sources   Search Dates

Add Show    List Management    Help


Grateful Dead 04/03/87
The Centrum, Worcester, MA
Comments Add Comment    Source Collectors    Add to Collection    Add to Want List    History
Source # 141970 Other Sources
Entered by Matt Vernon
Checksums ffp , flac-md5
Disc Counts 0 / 0
Media Size
Date Circulated
Date Added
05/16/2018
05/16/2018
Source Summary flac16; Set 2 Source Info: Oade's Master (FOB) Audience PCM; Schoeps CMC4/MK41 mics > Oade M118 > Oade modified Sony PCM-F1; Transfer Info: Master Oade PCM > Sek'd Prodif > Samplitude (.wav 16-bit/44.1k)> hard disk > Adobe Audition 3.0 > TLH flac16 
  Archive
Source Information - Download Text | Download Zip
Grateful Dead
The Centrum
Worcester, MA
Friday  April 3rd, 1987

Source Info:
Oade's Master (FOB) Audience PCM; Schoeps CMC4/MK41 mics > Oade M118 > Oade modified Sony PCM-F1

Transfer Info:
Master Oade PCM > Sek'd Prodif > Samplitude (.wav 16-bit/44.1k)> hard disk > Adobe Audition 3.0 > TLH flac16

Notes:
- Thanks to the Oade brothers and crew for their master recording(s), as well as a proper transfer to hard disk
- Thanks to Blake Jacobs for the hard disk
- Thanks to Charlie Miller for coordinating this effort
- Other One space included in "The Other One"
- Another fine Oade capture

Mastered by Scott Clugston
May 12, 2018

Set Two:
s2t01 - Crowd
s2t02 - China Cat Sunflower >
s2t03 - I Know You Rider
s2t04 - Man Smart (Woman Smarter) >
s2t05 - Crazy Fingers >
s2t06 - Samson And Delilah >
s2t07 - Drums >
s2t08 - Space >
s2t09 - The Other One >
s2t10 - Wharf Rat >
s2t11 - Throwing Stones >
s2t12 - Not Fade Away
s2t13 - Encore Break
s2t14 - US Blues



    length     expanded size    cdr  WAVE problems  fmt   ratio  filename
     0:33.00        5821244 B   ---   --   ---xx   flac  0.5400  gd87-04-03 s2 t01 Crowd.flac
     5:11.07       54876908 B   ---   --   ---xx   flac  0.6366  gd87-04-03 s2 t02 China Cat Sunflower.flac
     5:46.04       61043852 B   ---   --   ---xx   flac  0.6529  gd87-04-03 s2 t03 I Know You Rider.flac
     6:34.30       69572204 B   ---   --   ---xx   flac  0.6498  gd87-04-03 s2 t04 Man Smart (Woman Smarter).flac
     9:04.41       96058076 B   ---   --   ---xx   flac  0.6055  gd87-04-03 s2 t05 Crazy Fingers.flac
     6:36.32       69929708 B   ---   --   ---xx   flac  0.6647  gd87-04-03 s2 t06 Samson & Delilah.flac
     4:37.58       48999260 B   ---   --   ---xx   flac  0.5673  gd87-04-03 s2 t07 Drums.flac
     3:44.13       39544220 B   ---   --   ---xx   flac  0.4778  gd87-04-03 s2 t08 Space.flac
     7:08.03       75506300 B   ---   --   ---xx   flac  0.5989  gd87-04-03 s2 t09 The Other One.flac
     8:20.23       88254140 B   ---   --   ---xx   flac  0.5950  gd87-04-03 s2 t10 Wharf Rat.flac
     8:12.37       86875868 B   ---   --   ---xx   flac  0.6604  gd87-04-03 s2 t11 Throwing Stones.flac
     4:53.05       51697004 B   ---   --   ---xx   flac  0.6311  gd87-04-03 s2 t12 Not Fade Away.flac
     1:47.43       18975980 B   ---   --   ---xx   flac  0.5997  gd87-04-03 s2 t13 Encore Break.flac
     5:57.68       63134780 B   ---   --   ---xx   flac  0.6451  gd87-04-03 s2 t14 US Blues.flac
    78:26.64      830289544 B                            0.6194  (14 files)


Show Checksums
ffp
gd87-04-03 s2 t01 Crowd.flac:be458cb03bd56d77436e7f3c29f185d9
gd87-04-03 s2 t02 China Cat Sunflower.flac:9b9e2893846d00a555ecc8fee539ca78
gd87-04-03 s2 t03 I Know You Rider.flac:7361737421538d4a7c2fcc5fea45a8cd
gd87-04-03 s2 t04 Man Smart (Woman Smarter).flac:a1f1db2d1579b9324f2662817a8f688e
gd87-04-03 s2 t05 Crazy Fingers.flac:d05feda793d29c0696adf31b72583ebb
gd87-04-03 s2 t06 Samson & Delilah.flac:f4500edf08ceb3c0c31bbcf2d875ab9a
gd87-04-03 s2 t07 Drums.flac:d3140f409ab85ba4fcecae3bf227a3bb
gd87-04-03 s2 t08 Space.flac:eab23835df151999c65df98f77f4f09a
gd87-04-03 s2 t09 The Other One.flac:1044b018ce5efdeba65f2245c00637bf
gd87-04-03 s2 t10 Wharf Rat.flac:626041257c97311ccbf69cf5fd681097
gd87-04-03 s2 t11 Throwing Stones.flac:4ed9e6eec7d45b35351a938b88dfb3e9
gd87-04-03 s2 t12 Not Fade Away.flac:662e311fdfdfbb9d00931661d5f08686
gd87-04-03 s2 t13 Encore Break.flac:8ef54889cd1445b0b8bb8575b9cbc298
gd87-04-03 s2 t14 US Blues.flac:5398b81ee6020ab172005982c3bee0a7
flac-md5
1028559d7f2f10f641048b0fdc70d9e2 *gd87-04-03 s2 t01 Crowd.flac
8cf830d151822a6b96057e06b80bad2c *gd87-04-03 s2 t02 China Cat Sunflower.flac
9a4d209900ad2be12a0024256831d380 *gd87-04-03 s2 t03 I Know You Rider.flac
2424b70101f762f52bc6725cb23db79a *gd87-04-03 s2 t04 Man Smart (Woman Smarter).flac
d5fa11c9021ad53d59aea3a98b2a59da *gd87-04-03 s2 t05 Crazy Fingers.flac
3339318bb236fc34142e76115bca0e39 *gd87-04-03 s2 t06 Samson & Delilah.flac
9a6f381624756779c075195fa943c6a7 *gd87-04-03 s2 t07 Drums.flac
2814e81a7f595be6d32ff0e2fb3fbf5b *gd87-04-03 s2 t08 Space.flac
365f46f67d61d264ef551da9da0ea16c *gd87-04-03 s2 t09 The Other One.flac
c9165f291a693bb2ed685a2abb4180d4 *gd87-04-03 s2 t10 Wharf Rat.flac
74827db918a2366948545858ac88833e *gd87-04-03 s2 t11 Throwing Stones.flac
0a6ca672f77623bafe60730570a2c670 *gd87-04-03 s2 t12 Not Fade Away.flac
43a06d4ff9b97308a012cdd6fc1d7be2 *gd87-04-03 s2 t13 Encore Break.flac
76945a87d8eb7ca4cb4f6afaef2d407f *gd87-04-03 s2 t14 US Blues.flac

Comments
Add Comment
Other Sources (comments)
2nd set only;... (0) Recording Info: Sennheiser... (0) flac16; taper : Joe... (0) flac16; Recording... (0) flac16; Recording... (0) flac16; Master... (0) flac24; Master... (0) flac24; Set 2... (2) flac24; Recording... (0) flac16; Recording... (0) flac16; Recording... (0) flac24; Recording... (0)
Date User Comment