Browse Collections Artists Sources   Search Dates

Add Show    List Management    Help


Grateful Dead 10/11/80
Warfield Theater, San Francisco, CA
Comments Add Comment    Source Collectors    Add to Collection    Add to Want List    History
Source # 142012 Other Sources
Entered by Matt Vernon
Checksums ffp , flac-md5
Disc Counts 0 / 0
Media Size
Date Circulated
Date Added
05/21/2018
05/21/2018
Source Summary flac24; Source Info: Master Soundboard Cassettes > 1st generation cassettes > Matt Smith's 2nd generation cassettes; Transfer Info: 2nd generation cassettes (Nakamichi BX-300)> Apogee Mini Me > Apogee Mini DAC > WaveLab 5.0 (.wav 24-bit/96k) > Adobe Audition 3.0 > TLH flac2496 
  Archive
Source Information - Download Text | Download Zip
Grateful Dead

Warfield Theater

San Francisco, CA
Saturday October 11, 1980

Source Info:

Master Soundboard Cassettes > 1st generation cassettes > Matt Smith's 2nd generation cassettes

Transfer Info:
2nd generation cassettes (Nakamichi BX-300)> Apogee Mini Me > Apogee Mini DAC > WaveLab 5.0 (.wav 24-bit/96k) > Adobe Audition 3.0 > TLH flac2496

NOtes:
- Thanks to Matt Smith for the 2nd generation cassettes, as well as the transfer
- Thanks to Charlie Miller for coordinating this effort
- Thanks to Jeff Knudsen for the post space soundboard source(transferred by Matt Smith), which has not circulated until now
- Thanks to Todd Ellner for the shnid89615 Nakamichi 700 source which supplies most of "Space" (10:07 total)
- NFA space included in "Not Fade Away"
- John Cippolina sits in on "Not Fade Away", "Wharf Rat", "Goin' Down The Road Feeling Bad" and "One More Saturday Night"
- Transitions smoothed
- Channels corrected
- Pitch corrected


Mastered by Scott Clugston
May 12, 2018


Set One - Acoustic:

s1t01 - Dire Wolf

s1t02 - Dark Hollow

s1t03 - Rosalie McFall

s1t04 - Cassidy

s1t05 - Deep Elem Blues

s1t06 - Monkey & The Engineer

s1t07 - China Doll

s1t08 - Heaven Help The Fool

s1t09 - Oh Babe, It Ain't No Lie

s1t10 - Ripple



Set Two - Electric:
s2t01 - Tuning

s2t02 - Feel Like A Stranger

s2t03 - They Love Each Other

s2t04 - Mama Tried >

s2t05 - Mexicali Blues

s2t06 - Loser

s2t07 - Passenger

s2t08 - Ramble On Rose

s2t09 - Looks Like Rain

s2t10 - Althea >

s2t11 - Lost Sailor >

s2t12 - Saint Of Circumstance



Set Three - Electric:

s3t01 - China Cat Sunflower >

s3t02 - I Know You Rider

s3t03 - Let It Grow >

s3t04 - Drums >

s3t05 - Space >

s3t06 - Not Fade Away >

s3t07 - Wharf Rat >

s3t08 - Goin' Down The Road Feeling Bad >

s3t09 - One More Saturday Night

s3t10 - Encore Break
s3t11 - Brokedown Palace




    length     expanded size    cdr  WAVE problems  fmt   ratio  filename
     4:35.987     158968364 B   cxx   --   ---xx   flac  0.7068  gd80-10-11 s1t01 Dire Wolf.flac
     4:49.067     166502444 B   cxx   --   ---xx   flac  0.7044  gd80-10-11 s1t02 Dark Hollow.flac
     4:42.480     162708524 B   cxx   --   ---xx   flac  0.7017  gd80-10-11 s1t03 Rosalie McFall.flac
     6:53.187     237995564 B   cxx   --   ---xx   flac  0.7101  gd80-10-11 s1t04 Cassidy.flac
     6:37.800     229132844 B   cxx   --   ---xx   flac  0.7078  gd80-10-11 s1t05 Deep Elem Blues.flac
     3:46.933     130713644 B   cxx   --   ---xx   flac  0.7018  gd80-10-11 s1t06 Monkey & The Engineer.flac
     5:38.373     194903084 B   cxx   --   ---xx   flac  0.6972  gd80-10-11 s1t07 China Doll.flac
     6:43.693     232527404 B   cxx   --   ---xx   flac  0.7038  gd80-10-11 s1t08 Heaven Help The Fool.flac
     6:39.667     230208044 B   cxx   --   ---xx   flac  0.6986  gd80-10-11 s1t09 Oh Babe, It Ain't No Lie.flac
     4:32.217     156797156 B   cxx   --   ---xx   flac  0.7161  gd80-10-11 s1t10 Ripple.flac
     1:13.027      42063404 B   cxx   --   ---xx   flac  0.7033  gd80-10-11 s2t01 Tuning.flac
     9:02.840     312675884 B   cxx   --   ---xx   flac  0.7328  gd80-10-11 s2t02 Feel Like A Stranger.flac
     7:27.893     257986604 B   cxx   --   ---xx   flac  0.7226  gd80-10-11 s2t03 They Love Each Other.flac
     2:32.187      87659564 B   cxx   --   ---xx   flac  0.7313  gd80-10-11 s2t04 Mama Tried.flac
     4:23.720     151902764 B   cxx   --   ---xx   flac  0.7337  gd80-10-11 s2t05 Mexicali Blues.flac
     8:51.347     306055724 B   cxx   --   ---xx   flac  0.7211  gd80-10-11 s2t06 Loser.flac
     5:34.427     192629804 B   cxx   --   ---xx   flac  0.7329  gd80-10-11 s2t07 Passenger.flac
     7:14.920     250513964 B   cxx   --   ---xx   flac  0.7245  gd80-10-11 s2t08 Ramble On Rose.flac
     7:44.307     267440684 B   cxx   --   ---xx   flac  0.7183  gd80-10-11 s2t09 Looks Like Rain.flac
     7:51.627     271657004 B   cxx   --   ---xx   flac  0.7217  gd80-10-11 s2t10 Althea.flac
     6:20.627     219241004 B   cxx   --   ---xx   flac  0.7213  gd80-10-11 s2t11 Lost Sailor.flac
     6:25.397     221988860 B   cxx   --   ---xx   flac  0.7355  gd80-10-11 s2t12 Saint Of Circumstance.flac
     5:34.067     192422444 B   cxx   --   ---xx   flac  0.7385  gd80-10-11 s3t01 China Cat Sunflower.flac
     5:48.653     200824364 B   cxx   --   ---xx   flac  0.7332  gd80-10-11 s3t02 I Know You Rider.flac
    12:53.413     445486124 B   cxx   --   ---xx   flac  0.7323  gd80-10-11 s3t03 Let It Grow.flac
    10:04.093     347957804 B   cxx   --   ---xx   flac  0.7114  gd80-10-11 s3t04 Drums.flac
     8:38.573     298698284 B   cxx   --   ---xx   flac  0.5848  gd80-10-11 s3t05 Space.flac
    10:21.467     357964844 B   cxx   --   ---xx   flac  0.7020  gd80-10-11 s3t06 Not Fade Away.flac
     8:46.547     303290924 B   cxx   --   ---xx   flac  0.7120  gd80-10-11 s3t07 Wharf Rat.flac
     6:05.080     210286124 B   cxx   --   ---xx   flac  0.7182  gd80-10-11 s3t08 Goin' Down The Road Feeling Bad.flac
     4:47.813     165780524 B   cxx   --   ---xx   flac  0.7199  gd80-10-11 s3t09 One More Saturday Night.flac
     2:07.253      73297964 B   cxx   --   ---xx   flac  0.7009  gd80-10-11 s3t10 Encore Break.flac
     6:22.296     220202354 B   cxx   --   ---xx   flac  0.7021  gd80-10-11 s3t11 Brokedown Palace.flac
   211:10.977    7298484090 B                            0.7117  (33 files)


Show Checksums
ffp
gd80-10-11 s1t01 Dire Wolf.flac:fc3e9f95ef8ca909edc9851f39831066
gd80-10-11 s1t02 Dark Hollow.flac:d0ed817890458e27dec9baf7def6821e
gd80-10-11 s1t03 Rosalie McFall.flac:4e92871865cc14230cfb08971fe6f198
gd80-10-11 s1t04 Cassidy.flac:4c75aad9a31c6f73c87a557689cf52be
gd80-10-11 s1t05 Deep Elem Blues.flac:619d58a473a6d63d8e2bbfb99130f71d
gd80-10-11 s1t06 Monkey & The Engineer.flac:d140c5e560e1458660e6f51dc0b1de50
gd80-10-11 s1t07 China Doll.flac:71f2575879dbf7cf2958c1a465947849
gd80-10-11 s1t08 Heaven Help The Fool.flac:e9d69109557deb8a1063ef868a1a3f09
gd80-10-11 s1t09 Oh Babe, It Ain't No Lie.flac:945a25a3df4c6fd7cf04d0c343885f90
gd80-10-11 s1t10 Ripple.flac:5a84a91d6bf5b16f303bb7ab17828446
gd80-10-11 s2t01 Tuning.flac:468a53547d719d104a2ae7d72390119a
gd80-10-11 s2t02 Feel Like A Stranger.flac:e2a0fde36fab44b23e01d5f610bd25b1
gd80-10-11 s2t03 They Love Each Other.flac:c1919ed1e785beb9d30dc6049bb623a8
gd80-10-11 s2t04 Mama Tried.flac:ba74d75f04e5bf15506b5edc926a27d7
gd80-10-11 s2t05 Mexicali Blues.flac:e576f6d914776bc5227006ad3485bf60
gd80-10-11 s2t06 Loser.flac:124a5f3951ee9176b03f39a041b8206a
gd80-10-11 s2t07 Passenger.flac:4c9164b69b1e92cb566804f24de767b3
gd80-10-11 s2t08 Ramble On Rose.flac:5042235e70e3fe81f6ac395815e9c703
gd80-10-11 s2t09 Looks Like Rain.flac:5419296e350e18740924ffc2223a8199
gd80-10-11 s2t10 Althea.flac:54249d48283bec065316e8a69e207e3a
gd80-10-11 s2t11 Lost Sailor.flac:dba69090275374591adeb9289b0e4c9f
gd80-10-11 s2t12 Saint Of Circumstance.flac:c7b802fcd890d88dd96092e217ee543c
gd80-10-11 s3t01 China Cat Sunflower.flac:67e5503a6877470d098c00ce6706b603
gd80-10-11 s3t02 I Know You Rider.flac:624f7361fc5e2e547aa7a8df196b9fa7
gd80-10-11 s3t03 Let It Grow.flac:6a81291c0f57b87b8b8db72abcd53ec4
gd80-10-11 s3t04 Drums.flac:a346a034d713c400bfbe0f27626c543f
gd80-10-11 s3t05 Space.flac:c14f939ac5d87359b5dd1b57da04047d
gd80-10-11 s3t06 Not Fade Away.flac:2e0e299830deecbfd33168b66b3b00e3
gd80-10-11 s3t07 Wharf Rat.flac:a17ce5b732751f1c3e8cb5d4f0696ca3
gd80-10-11 s3t08 Goin' Down The Road Feeling Bad.flac:de28e109008897f0aeae3726489e9639
gd80-10-11 s3t09 One More Saturday Night.flac:f129a8b408e54c36e8c53780d4c5fe4e
gd80-10-11 s3t10 Encore Break.flac:c40dc606037b0487f3dc1ab22e61dc24
gd80-10-11 s3t11 Brokedown Palace.flac:975f479cb1d447de4275beef2f622521
flac-md5
6572f9f5ac896ce08767fdc9e5a89228 *gd80-10-11 s1t01 Dire Wolf.flac
e0c41fe9a870ba6b85acf0c37a5ea66f *gd80-10-11 s1t02 Dark Hollow.flac
502d5832e5b66d88ab53bc7dfc2c3073 *gd80-10-11 s1t03 Rosalie McFall.flac
835bffafbd46c4b1891416538d2550a9 *gd80-10-11 s1t04 Cassidy.flac
f7f9fab62fc98bcf204b7504f1cc3931 *gd80-10-11 s1t05 Deep Elem Blues.flac
882c406be7dacc7d85d98f9dbc512ebd *gd80-10-11 s1t06 Monkey & The Engineer.flac
6b33b3f5bbf08ac723169ec95a16f360 *gd80-10-11 s1t07 China Doll.flac
017c861b2b8ed30e7f88cbcc5affa02f *gd80-10-11 s1t08 Heaven Help The Fool.flac
11b8838b4dcab2a4014ce10ee5c8656a *gd80-10-11 s1t09 Oh Babe, It Ain't No Lie.flac
8dea1e02a73b47711a8bc380e885b179 *gd80-10-11 s1t10 Ripple.flac
e0bba78ebe32d7c30f6b633b20612500 *gd80-10-11 s2t01 Tuning.flac
0dbb28a32ad3ab70c809c8d8437812c4 *gd80-10-11 s2t02 Feel Like A Stranger.flac
9b6989366df1784d1ddfc952d2814d98 *gd80-10-11 s2t03 They Love Each Other.flac
5c0314b45debcab62aa376ad247b5786 *gd80-10-11 s2t04 Mama Tried.flac
aa55b1edfd5b6e54283a6a131264d808 *gd80-10-11 s2t05 Mexicali Blues.flac
01ad2fee6de3620792560381b426506a *gd80-10-11 s2t06 Loser.flac
c2b4ca22d1d1e6f4329b54433d4ed612 *gd80-10-11 s2t07 Passenger.flac
2bc404ec297ae58cddf663068eb8bb79 *gd80-10-11 s2t08 Ramble On Rose.flac
9ebbeaf2c24707420295c936881b9bd3 *gd80-10-11 s2t09 Looks Like Rain.flac
b541b63eac7b62f6ed1f86a882d8cc69 *gd80-10-11 s2t10 Althea.flac
dec7305235b3abe0621a7d10243d593b *gd80-10-11 s2t11 Lost Sailor.flac
a8e6a2eaf231b6bc026f75c8fef2ffc5 *gd80-10-11 s2t12 Saint Of Circumstance.flac
03214d7c69aa4776e196ccf9f1474ef8 *gd80-10-11 s3t01 China Cat Sunflower.flac
354139530520ec228293fede7caf9c90 *gd80-10-11 s3t02 I Know You Rider.flac
9e6b5719cb2e68e1434df2b36dcee84d *gd80-10-11 s3t03 Let It Grow.flac
da7c32bc2ea30c6249c0e3abb683c09c *gd80-10-11 s3t04 Drums.flac
f007de664b2e042112ca5c0e2214e6dc *gd80-10-11 s3t05 Space.flac
51172585aa6d1da558587c6519c237ed *gd80-10-11 s3t06 Not Fade Away.flac
4b9d60f22aa1bdfe32ea5e161a705c9c *gd80-10-11 s3t07 Wharf Rat.flac
04af91e9191a7da18c23a04b7e4e72ca *gd80-10-11 s3t08 Goin' Down The Road Feeling Bad.flac
f684385e084b89baff4dcb2e861f9e0a *gd80-10-11 s3t09 One More Saturday Night.flac
1eaf2143ef016d4f5601b26c6e9f26c3 *gd80-10-11 s3t10 Encore Break.flac
4c8eb6c8fef9f1aac9f0a17064b80f62 *gd80-10-11 s3t11 Brokedown Palace.flac

Comments
Add Comment
Other Sources (comments)
acoustic set; SBD> Reel>... (1) shn set from (0) SBD:MC >? >CDR >EAC >cool... (4) flac16; Acoustic Set... (0) flac16; Recorded by... (0) flac16/48kHz; Master... (0)
Date User Comment