Browse Collections Artists Sources   Search Dates

Add Show    List Management    Help


Allman Brothers Band 10/15/71
Syria Mosque, Pittsburgh, PA
Comments Add Comment    Source Collectors    Add to Collection    Add to Want List    History
Source # 142069 Other Sources
Entered by Matt Vernon
Checksums ffp
Disc Counts 0 / 0
Media Size
Date Circulated
Date Added

05/27/2018
Source Summary flac16 44.1khz Unknow audience recording. Liberated Sinsemilla boot Dreams And Nightmares. Remastered by PR 
Source Information - Download Text | Download Zip
THE ALLMAN BROTHERS BAND
1971-10-15
Syria Mosque, Pittsburgh PA

Liberated Sinsemilla boot Dreams And Nightmares

Remastered by PR

unk aud

01. Statesboro Blues
02. Don't Keep Me Wonderin'
03. Done Somebody
04. One Way Out
05. In Memory Of Elizabeth Reed
06. Hot 'Lanta
07. Stormy Monday
08. You Don't Love Me
09. Revival
10. Trouble No More

The last recording with Duane Allman

01 Statesboro Blues-fixed.flac:100c26171abc2fb70c92fcb445e36d72
02 Don't Keep Me Wondering-fixed.flac:ad26c1c6c9339865fa456fbf57a5611e
03 Done Somebody Wrong-fixed.flac:d27d445431a7013b036cb2e501afcb8f
04 One Way Out-fixed.flac:2f6ee740856e81429152335b32e6445b
05 In Memory Of Elizabeth Reed-fixed.flac:39a39a65e7dda867dfebd0d64feebc7d
06 Hot 'Lanta-fixed.flac:09fa70de4c1069c7ec478a229c53d00e
07 Stormy Monday-fixed.flac:b86f14f0a882df8dd312093ee313925f
08 You Don't Love Me-fixed.flac:80eb347a12c29313c6abba02dc291b7d
09 Revival-fixed.flac:7de222b3ad50c30e12775cc6fe5e90bd
10 Trouble No More-fixed.flac:9b1fd0cd731d035f33aa43b0b97ea21f

length     expanded size    cdr  WAVE problems  fmt   ratio  filename
     4:09.39       44015372 B   ---   --   ---xx   flac  0.3423  01 Statesboro Blues-fixed.flac
     3:35.19       37970732 B   ---   --   ---xx   flac  0.3355  02 Don't Keep Me Wondering-fixed.flac
     3:36.09       38123612 B   ---   --   ---xx   flac  0.3613  03 Done Somebody Wrong-fixed.flac
     4:58.13       52597820 B   ---   --   ---xx   flac  0.3577  04 One Way Out-fixed.flac
    10:08.74      107425292 B   ---   --   ---xx   flac  0.3781  05 In Memory Of Elizabeth Reed-fixed.flac
     6:15.50       66267644 B   ---   --   ---xx   flac  0.3768  06 Hot 'Lanta-fixed.flac
     7:42.00       81496844 B   ---   --   ---xx   flac  0.3698  07 Stormy Monday-fixed.flac
    12:15.10      129677564 B   ---   --   ---xx   flac  0.3551  08 You Don't Love Me-fixed.flac
     5:16.67       55900028 B   ---   --   ---xx   flac  0.3688  09 Revival-fixed.flac
     3:48.66       40374476 B   ---   --   ---xx   flac  0.3640  10 Trouble No More-fixed.flac
    61:46.47      653849384 B                            0.3632  (10 files)



Show Checksums
ffp
;flac fingerprints generated by xACT 2.43 on 2018-05-27 22:43:31 +0000

01 Statesboro Blues-fixed.flac:100c26171abc2fb70c92fcb445e36d72
02 Don't Keep Me Wondering-fixed.flac:ad26c1c6c9339865fa456fbf57a5611e
03 Done Somebody Wrong-fixed.flac:d27d445431a7013b036cb2e501afcb8f
04 One Way Out-fixed.flac:2f6ee740856e81429152335b32e6445b
05 In Memory Of Elizabeth Reed-fixed.flac:39a39a65e7dda867dfebd0d64feebc7d
06 Hot 'Lanta-fixed.flac:09fa70de4c1069c7ec478a229c53d00e
07 Stormy Monday-fixed.flac:b86f14f0a882df8dd312093ee313925f
08 You Don't Love Me-fixed.flac:80eb347a12c29313c6abba02dc291b7d
09 Revival-fixed.flac:7de222b3ad50c30e12775cc6fe5e90bd
10 Trouble No More-fixed.flac:9b1fd0cd731d035f33aa43b0b97ea21f

Comments
Add Comment
Other Sources (comments)
Source: u/k aud * > ??? >... (0)
Date User Comment