Browse Collections Artists Sources   Search Dates

Add Show    List Management    Help


Grateful Dead 07/06/87
Civic Arena, Pittsburgh, PA
Comments Add Comment    Source Collectors    Add to Collection    Add to Want List    History
Source # 142086 Other Sources
Entered by Matt Vernon
Checksums ffp , flac-md5
Disc Counts 0 / 0
Media Size
Date Circulated
Date Added
05/28/2018
05/28/2018
Source Summary flac24; Recording Info: UltraMatrix SBD > Beta HiFi Master (TDK HS); Transfer Info: Beta HiFi Master (Sony SL-HF66) > Tascam DA-3000 (DSF 1-bit/5.6 MHz) > dBpoweramp > Samplitude Pro X3 Suite > FLAC/24; All Transfers and Mastering by Charlie Miller 
  Archive
Source Information - Download Text | Download Zip
Grateful Dead - July 6, 1987
Pittsburgh Civic Arena - Pittsburgh, PA

Recording Info:
UltraMatrix SBD > Beta HiFi Master (TDK HS)

Transfer Info:
Beta HiFi Master (Sony SL-HF66) > Tascam DA-3000 (DSF 1-bit/5.6 MHz) >
dBpoweramp > Samplitude Pro X3 Suite > FLAC/24
(1 DVD FLAC)

All Transfers and Mastering by Charlie Miller
[email protected]
May 27, 2018

Notes:
-- Iko Iko thru Drums and Johnny B. Goode with The Neville Brothers

Set 1:
01 - Tuning
02 - Feel Like A Stranger >
03 - Franklin's Tower
04 - New Minglewood Blues
05 - Row Jimmy
06 - Mama Tried >
07 - Big River
08 - Far From Me
09 - Stagger Lee
10 - Desolation Row >
11 - Don't Ease Me In

Set 2:
12 - Tuning
13 - Shakedown Street >
14 - Samson And Delilah
15 - Iko Iko >
16 - Banana Boat Song (Day-O) >
17 - Man Smart (Woman Smarter) >
18 - Drums >
19 - Space >
20 - Knockin' On Heaven's Door >
21 - Good Lovin'

Encore:
22 - Encore Break
23 - Johnny B. Goode


SHNTOOL OUTPUT:
    length     expanded size    cdr  WAVE problems  fmt   ratio  filename
     2:02.530      70577252 B   cxx   --   ---xx   flac  0.5509  01 Tuning.flac
     7:22.439     254844980 B   cxx   --   ---xx   flac  0.6156  02 Feel Like A Stranger.flac
     8:32.759     295349330 B   cxx   --   ---xx   flac  0.6282  03 Franklin's Tower.flac
     8:41.722     300511742 B   cxx   --   ---xx   flac  0.6326  04 New Minglewood Blues.flac
    10:05.560     348802604 B   cxx   --   ---xx   flac  0.6179  05 Row Jimmy.flac
     2:35.960      89833004 B   cxx   --   ---xx   flac  0.6383  06 Mama Tried.flac
     7:12.243     248971952 B   cxx   --   ---xx   flac  0.6308  07 Big River.flac
     6:08.582     212303282 B   cxx   --   ---xx   flac  0.6267  08 Far From Me.flac
     5:09.720     178398764 B   cxx   --   ---xx   flac  0.6288  09 Stagger Lee.flac
    10:32.279     364192958 B   cxx   --   ---xx   flac  0.6322  10 Desolation Row.flac
     3:44.040     129047048 B   cxx   --   ---xx   flac  0.6497  11 Don't Ease Me In.flac
     0:51.956      29926574 B   cxx   --   ---xx   flac  0.5861  12 Tuning.flac
    12:14.480     423060524 B   cxx   --   ---xx   flac  0.6337  13 Shakedown Street.flac
     8:10.041     282263840 B   cxx   --   ---xx   flac  0.6214  14 Samson And Delilah.flac
     6:01.387     208158764 B   cxx   --   ---xx   flac  0.6349  15 Iko Iko.flac
     2:22.787      82245164 B   cxx   --   ---xx   flac  0.6323  16 Banana Boat Song (Day-O).flac
     6:15.840     216483884 B   cxx   --   ---xx   flac  0.6383  17 Man Smart (Woman Smarter).flac
     8:35.160     296732204 B   cxx   --   ---xx   flac  0.5781  18 Drums.flac
     8:35.573     296970284 B   cxx   --   ---xx   flac  0.5720  19 Space.flac
     9:02.240     312330284 B   cxx   --   ---xx   flac  0.6160  20 Knockin' On Heaven's Door.flac
     7:46.400     268646444 B   cxx   --   ---xx   flac  0.6357  21 Good Lovin'.flac
     3:31.787     121989164 B   cxx   --   ---xx   flac  0.5898  22 Encore Break.flac
     4:29.743     155372084 B   cxx   --   ---xx   flac  0.6390  23 Johnny B Goode.flac
   150:05.228    5187012130 B                            0.6208  (23 files)


Show Checksums
ffp
01 Tuning.flac:815a1e588beb1bf7e8d822baad57e4a2
02 Feel Like A Stranger.flac:0143521ce463ba66d0defa884459fb85
03 Franklin's Tower.flac:75f1eae72309d936effea61067488411
04 New Minglewood Blues.flac:5a95308f77c79ea75c669b967bd10590
05 Row Jimmy.flac:9085e9e6677aa1e7a5735284adb107a6
06 Mama Tried.flac:71fdeaf197fa0bfb467a7604f9e35f07
07 Big River.flac:d3c366d8144ccd3b2ff5cb69ea57caa1
08 Far From Me.flac:f38d952e28be0617191729d4b12d0211
09 Stagger Lee.flac:cd2bcbb3902a90eb935aded8c55f2d63
10 Desolation Row.flac:b444dedd86012addcbcd57e0d113cf0c
11 Don't Ease Me In.flac:f6a90f3b0e1831a658714ea8cdf9d0c9
12 Tuning.flac:be15f7dfa61ccd8726fe14c030be8f13
13 Shakedown Street.flac:afd6e3dac0bf80153696ef8fded1afba
14 Samson And Delilah.flac:c9ff5201af9368a5e920cbdc470f6af1
15 Iko Iko.flac:91eca059c99c156579e3f63d62648480
16 Banana Boat Song (Day-O).flac:e8824c9834a4e28366396104ee341b6e
17 Man Smart (Woman Smarter).flac:292ea41cc404f5ef787d79432773ca7a
18 Drums.flac:731f394e783476fa2e18045ab121045a
19 Space.flac:3c019a7510f9942e86e71e0950f431a0
20 Knockin' On Heaven's Door.flac:a704b8e6aac4d7cbe5af2cdfa5212f8a
21 Good Lovin'.flac:cad563615315cb848884fdc801e7d24e
22 Encore Break.flac:06fc728f5329427778786f51713655c4
23 Johnny B Goode.flac:ba0108277565b132816e02a9e60faadf
flac-md5
7dc343d7382e2dc6ae66540b184496f6 *01 Tuning.flac
9335f60027d19a25a19c50563cad7a31 *02 Feel Like A Stranger.flac
95a9aef975d9133b6f75b4c973cdd610 *03 Franklin's Tower.flac
87a9ff40a583e9087f71f782791afb2f *04 New Minglewood Blues.flac
e7abc38a182c858c5c8a3a85a7f2cb78 *05 Row Jimmy.flac
21d2cad9f15ec13c074df3a63782a21c *06 Mama Tried.flac
a03ac8c0e31c8969c4d20cf19d11b5f5 *07 Big River.flac
ec4bfc1b36a45e0ad8829badb6ca01d2 *08 Far From Me.flac
05811a6d853d46366a2c7286990956de *09 Stagger Lee.flac
662ef396b54af4aa76b35f2fdb7e907e *10 Desolation Row.flac
7c73be2d4d6d7a47da6ea12236cdf6df *11 Don't Ease Me In.flac
677fbddafe5403057fe0b0a6aaab2d24 *12 Tuning.flac
a91ae573360b048d3c52c5d8b4b1903a *13 Shakedown Street.flac
2c5f5cc6f00d49581899d38d689aecb5 *14 Samson And Delilah.flac
84ff10600b31f6546287264ac795bc16 *15 Iko Iko.flac
341cb00ff6f124c3a79f29f8f01b5249 *16 Banana Boat Song (Day-O).flac
4e3f1390f06158a00bd03875f1b20b4c *17 Man Smart (Woman Smarter).flac
3d3e030e68f6c35c157cd20125d2542d *18 Drums.flac
235a9135bf1d5042463408d0534c19c2 *19 Space.flac
19ece024f0c4c55ca3611ea8a7091a22 *20 Knockin' On Heaven's Door.flac
f90a9429f264b85144e9dac7dd6339c9 *21 Good Lovin'.flac
7a149ea6eaf3d66dfd18ba70ea970b0f *22 Encore Break.flac
a286f411af1be7a7921df6b7ae929de1 *23 Johnny B Goode.flac

Comments
Add Comment
Other Sources (comments)
AUD> Beyer Dynamic M88's>... (0) unknown AUD> ?> CDR> EAC>... (3) flac16; Source: 2... (0) flac24; Source:... (0) flac16; Recording... (0) flac16; Source Info:... (0) flac16; Recording... (0)
Date User Comment