Browse Collections Artists Sources   Search Dates

Add Show    List Management    Help


Grateful Dead 07/06/87
Civic Arena, Pittsburgh, PA
Comments Add Comment    Source Collectors    Add to Collection    Add to Want List    History
Source # 142087 Other Sources
Entered by Matt Vernon
Checksums ffp , flac-md5
Disc Counts 0 / 0
Media Size
Date Circulated
Date Added
05/28/2018
05/28/2018
Source Summary flac16; Source Info: Oade's Master (FOB) Audience PCM; Schoeps CMC3/MK41 mics > Oade M118 > Oade modified Sony PCM-F1; Transfer Info: Master Oade PCM > Sek'd Prodif > Samplitude (.wav 16-bit/44.1k)> hard disk > Adobe Audition 3.0 > TLH flac16 
  Archive
Source Information - Download Text | Download Zip
Grateful Dead
Civic Arena
Pittsburgh, PA
Monday July 6th, 1987

Source Info:
Oade's Master (FOB) Audience PCM; Schoeps CMC3/MK41 mics > Oade M118 > Oade modified Sony PCM-F1

Transfer Info:
Master Oade PCM > Sek'd Prodif > Samplitude (.wav 16-bit/44.1k)> hard disk > Adobe Audition 3.0 > TLH flac16

Notes:
- Thanks to the Oade brothers and crew for their master recording(s), as well as the proper transfer to hard disk
- Thanks to Blake Jacobs for the hard disk
- Thanks to Charlie Miller for coordinating this effort
- Another fine Oade capture

Mastered by Scott Clugston
May 21, 2018

Set One:
t01 - Crowd
t02 - Feel Like A Stranger >
t03 - Franklin's Tower
t04 - New Minglewood Blues
t05 - Row Jimmy
t06 - Mama Tried >
t07 - Big River
t08 - Far From Me
t09 - Stagger Lee
t10 - Desolation Row >
t11 - Don't Ease Me In

Set Two:
t12 - Crowd
t13 - Shakedown Street >
t14 - Samson And Delilah
t15 - Iko Iko >
t16 - Banana Boat Song (Day-O) >
t17 - Man Smart (Woman Smarter) >
t18 - Drums >
t19 - Space >
t20 - Knockin' On Heaven's Door >
t21 - Good Lovin'
t22 - Encore Break
t23 - Johnny B. Goode


    length     expanded size    cdr  WAVE problems  fmt   ratio  filename
     2:43.57       28887308 B   ---   --   ---xx   flac  0.4207  gd87-07-06 t01 Crowd.flac
     7:21.04       77801852 B   ---   --   ---xx   flac  0.5576  gd87-07-06 t02 Feel Like A Stranger.flac
     8:31.15       90175724 B   ---   --   ---xx   flac  0.5727  gd87-07-06 t03 Franklin's Tower.flac
     8:41.48       92017340 B   ---   --   ---xx   flac  0.6009  gd87-07-06 t04 New Minglewood Blues.flac
    10:05.62      106867868 B   ---   --   ---xx   flac  0.5564  gd87-07-06 t05 Row Jimmy.flac
     2:37.00       27694844 B   ---   --   ---xx   flac  0.6069  gd87-07-06 t06 Mama tried.flac
     7:09.54       75802652 B   ---   --   ---xx   flac  0.5933  gd87-07-06 t07 Big River.flac
     6:11.49       65559692 B   ---   --   ---xx   flac  0.5735  gd87-07-06 t08 Far From Me.flac
     5:10.63       54832220 B   ---   --   ---xx   flac  0.5716  gd87-07-06 t09 Stagger Lee.flac
    10:29.68      111115580 B   ---   --   ---xx   flac  0.5584  gd87-07-06 t10 Desolation Row.flac
     3:44.11       39539516 B   ---   --   ---xx   flac  0.6103  gd87-07-06 t11 Don't Ease Me In.flac
     0:43.72        7754588 B   ---   --   ---xx   flac  0.4729  gd87-07-06 t12 Crowd.flac
    12:13.14      129334172 B   ---   --   ---xx   flac  0.6128  gd87-07-06 t13 Shakedown Street.flac
     7:40.73       81315740 B   ---   --   ---xx   flac  0.5971  gd87-07-06 t14 Samson & Delilah.flac
     6:24.63       67885820 B   ---   --   ---xx   flac  0.6062  gd87-07-06 t15 Iko Iko.flac
     2:30.02       26464748 B   ---   --   ---xx   flac  0.6039  gd87-07-06 t16 Banana Boat Song (Day-O).flac
     6:24.18       67779980 B   ---   --   ---xx   flac  0.6250  gd87-07-06 t17 Man Smart ( Woman Smarter).flac
     8:21.30       88447004 B   ---   --   ---xx   flac  0.4724  gd87-07-06 t18 Drums.flac
     8:41.44       92007932 B   ---   --   ---xx   flac  0.4322  gd87-07-06 t19 Space.flac
     8:56.60       94691564 B   ---   --   ---xx   flac  0.5527  gd87-07-06 t20 Knockin' On Heavens' Door.flac
     7:52.47       83371388 B   ---   --   ---xx   flac  0.5967  gd87-07-06 t21 Good Lovin'.flac
     3:25.13       36192620 B   ---   --   ---xx   flac  0.5081  gd87-07-06 t22 Encore Break.flac
     4:28.33       47352860 B   ---   --   ---xx   flac  0.5967  gd87-07-06 t23 Johnny B. Goode.flac
   150:30.00     1592893012 B                            0.5651  (23 files)


Show Checksums
ffp
gd87-07-06 t01 Crowd.flac:125f01c8a316539bb0d1ae828149af8e
gd87-07-06 t02 Feel Like A Stranger.flac:fc5e5c3ca4d471db56a583ab194031fc
gd87-07-06 t03 Franklin's Tower.flac:bb12c410c723d5b8c3599cdd784a26de
gd87-07-06 t04 New Minglewood Blues.flac:24f17b659a6054d7ca9643cc12870c4a
gd87-07-06 t05 Row Jimmy.flac:ec37ffa7087ae499c0188eac79091a43
gd87-07-06 t06 Mama tried.flac:a35c59ce86af7bf48423ccc3b1570143
gd87-07-06 t07 Big River.flac:34fc4280eac148787d2050f5e93550ac
gd87-07-06 t08 Far From Me.flac:901c41168b6b813ace79248fdd5b40b2
gd87-07-06 t09 Stagger Lee.flac:cffdcc8cae799abf8c0b29d0b0a2c9a6
gd87-07-06 t10 Desolation Row.flac:fbf175342a2093e0be3ef92cc07529c4
gd87-07-06 t11 Don't Ease Me In.flac:0c4dc9a916f3430a5461ea6b85e8c85a
gd87-07-06 t12 Crowd.flac:dcfa72142fe67477bd0b67244c64b509
gd87-07-06 t13 Shakedown Street.flac:726c4560c932ff8faf38b969fc933cc5
gd87-07-06 t14 Samson & Delilah.flac:fabe91750521f90d47475ff4263e7b8c
gd87-07-06 t15 Iko Iko.flac:bb9a9bf2d100b7fc0e61e4473fb99475
gd87-07-06 t16 Banana Boat Song (Day-O).flac:411b274f33fe9edf7871d3fcb89219be
gd87-07-06 t17 Man Smart ( Woman Smarter).flac:3e9bd752dc8661d704a1c50a711507f1
gd87-07-06 t18 Drums.flac:a31377f2fbcf00e8018d957c16116b48
gd87-07-06 t19 Space.flac:77ee05462211dba5d42ab4e179d0b334
gd87-07-06 t20 Knockin' On Heavens' Door.flac:f3132903e583c37dde3e875a1dd39377
gd87-07-06 t21 Good Lovin'.flac:31227698fa972260318bdd68037a19c8
gd87-07-06 t22 Encore Break.flac:083190e10d24b9948212dc57e91406d0
gd87-07-06 t23 Johnny B. Goode.flac:c8c87ce81e0d4c7b18798c6ec09dadd7
flac-md5
c8d43afbc93e8a3877e5b2b1b6c82a90 *gd87-07-06 t02 Feel Like A Stranger.flac
c26b45fcaddbda021063adbde87abf6e *gd87-07-06 t03 Franklin's Tower.flac
2239c9cbb4134fc8a95164e5bbb6a712 *gd87-07-06 t04 New Minglewood Blues.flac
36a26106530c94178cb43a26fc5e27f4 *gd87-07-06 t05 Row Jimmy.flac
7fa052f5f8a9fadb9c4f386d9906101f *gd87-07-06 t06 Mama tried.flac
d98aaaa60209a4aa4bb62961ac2a887d *gd87-07-06 t07 Big River.flac
0de922e597f89afe87d473fd07694e25 *gd87-07-06 t08 Far From Me.flac
afe54c44dfb0211265fb5045c515e92f *gd87-07-06 t09 Stagger Lee.flac
380353cde2220528555d90c79ab03f19 *gd87-07-06 t10 Desolation Row.flac
bb392cc41f84b5295335327ff0da21b7 *gd87-07-06 t11 Don't Ease Me In.flac
cd181b264f953b3a18842d1a0e742661 *gd87-07-06 t12 Crowd.flac
549ee2a3f3f93756523afe86b34babe8 *gd87-07-06 t13 Shakedown Street.flac
6be4f2da8d0237595f0a65b3be61f940 *gd87-07-06 t14 Samson & Delilah.flac
214b3e7b5d93e751ebdda125ff2d52f6 *gd87-07-06 t15 Iko Iko.flac
fbfbb3d521f919f67dd3722341d117f8 *gd87-07-06 t16 Banana Boat Song (Day-O).flac
798f0f0ac7d5a984991d5b3d3a8ff58d *gd87-07-06 t17 Man Smart ( Woman Smarter).flac
d640986dd39f1000111437237c048c82 *gd87-07-06 t18 Drums.flac
d5427187c8e4dcc83586fccac9ec9f0c *gd87-07-06 t19 Space.flac
bcc1202cb70524088505e32e1ecfab5d *gd87-07-06 t20 Knockin' On Heavens' Door.flac
c015e88a1729125800385cd145f701a3 *gd87-07-06 t21 Good Lovin'.flac
99a881079c8ff4a57c0a24b538275aaa *gd87-07-06 t22 Encore Break.flac
5e81de5dc930d87f0d13c62266b85425 *gd87-07-06 t23 Johnny B. Goode.flac

Comments
Add Comment
Other Sources (comments)
AUD> Beyer Dynamic M88's>... (0) unknown AUD> ?> CDR> EAC>... (3) flac16; Source: 2... (0) flac24; Source:... (0) flac16; Recording... (0) flac24; Recording... (0) flac16; Recording... (0)
Date User Comment