Browse Collections Artists Sources   Search Dates

Add Show    List Management    Help


Grateful Dead 08/11/87
Red Rocks Amphitheatre, Morrison, CO
Comments Add Comment    Source Collectors    Add to Collection    Add to Want List    History
Source # 142088 Other Sources
Entered by Matt Vernon
Checksums ffp , flac-md5
Disc Counts 0 / 0
Media Size
Date Circulated
Date Added
05/28/2018
05/28/2018
Source Summary flac16; Source Info: Oade's Master (FOB) Audience PCM; Schoeps CMC3/MK41 mics > Oade M118 > Oade modified Sony PCM-F1; Transfer Info: Master Oade PCM > Sek'd Prodif > Samplitude (.wav 16-bit/44.1k)> hard disk > Adobe Audition 3.0 > TLH flac16 
  Archive
Source Information - Download Text | Download Zip
Grateful Dead
Red Rocks Amphitheatre
Morrison, CO
Tuesday August 11th, 1987

Source Info:
Oade's Master (FOB) Audience PCM; Schoeps CMC3/MK41 mics > Oade M118 > Oade modified Sony PCM-F1

Transfer Info:
Master Oade PCM > Sek'd Prodif > Samplitude (.wav 16-bit/44.1k)> hard disk > Adobe Audition 3.0 > TLH flac16

Notes:
- Thanks to the Oade brothers and crew for their master recording(s), as well as the proper transfer to hard disk
- Thanks to Blake Jacobs for the hard disk
- Thanks to Charlie Miller for coordinating this effort
- Another fine Oade capture

Mastered by Scott Clugston
May 21, 2018

Set One:
t01 - Cold Rain & Snow >
t02 - Little Red Rooster
t03 - Tons Of Steel
t04 - High Time
t05 - When I Paint My Masterpiece
t06 - When Push Comes To Shove
t07 - Let It Grow

Set Two:
t08 - Crowd
t09 - Crazy Fingers >
t10 - Samson & Delilah
t11 - Ship Of Fools
t12 - Playin' In The Band >
t13 - China Doll >
t14 - Drums >
t15 - Space >
t16 - All Along The Watchtower >
t17 - Goin' Down The Road Feeling Bad >
t18 - Around & Around >
t19 - Sugar Magnolia
t20 - Encore Break
t21 - Black Muddy River



    length     expanded size    cdr  WAVE problems  fmt   ratio  filename
     6:05.70       64550684 B   ---   --   ---xx   flac  0.4622  gd87-08-11 t01 Cold Rain & Snow.flac
     9:52.24      104485292 B   ---   --   ---xx   flac  0.4602  gd87-08-11 t02 Little Red Rooster.flac
     5:14.26       55450796 B   ---   --   ---xx   flac  0.5047  gd87-08-11 t03 Tons Of Steel.flac
     8:02.21       85074236 B   ---   --   ---xx   flac  0.4278  gd87-08-11 t04 High Time.flac
     4:22.47       46327388 B   ---   --   ---xx   flac  0.5165  gd87-08-11 t05 When I Paint My Masterpiece.flac
     6:01.46       63788636 B   ---   --   ---xx   flac  0.4910  gd87-08-11 t06 When Push Comes To Shove.flac
    13:03.67      138278828 B   ---   --   ---xx   flac  0.5073  gd87-08-11 t07 Let It Grow.flac
     1:24.25       14876444 B   ---   --   ---xx   flac  0.3930  gd87-08-11 t08 Crowd.flac
     7:59.05       84507404 B   ---   --   ---xx   flac  0.4610  gd87-08-11 t09 Crazy Fingers.flac
     6:24.25       67796444 B   ---   --   ---xx   flac  0.5112  gd87-08-11 t10 Samson & Delilah.flac
     9:31.70      100889084 B   ---   --   ---xx   flac  0.4534  gd87-08-11 t11 Ship Of Fools.flac
     8:20.53       88324700 B   ---   --   ---xx   flac  0.5149  gd87-08-11 t12 Playin' In The Band.flac
     5:15.47       55676588 B   ---   --   ---xx   flac  0.4783  gd87-08-11 t13 China Doll.flac
     8:36.11       91048316 B   ---   --   ---xx   flac  0.4107  gd87-08-11 t14 Drums.flac
     7:13.12       76409468 B   ---   --   ---xx   flac  0.3608  gd87-08-11 t15 Space.flac
     4:48.42       50902028 B   ---   --   ---xx   flac  0.5216  gd87-08-11 t16 All Along The Watchtower.flac
     6:24.35       67819964 B   ---   --   ---xx   flac  0.4921  gd87-08-11 t17 Goin' Down The Road Feeling Bad.flac
     3:45.69       39852332 B   ---   --   ---xx   flac  0.5236  gd87-08-11 t18 Around & Around.flac
     9:12.23       97426940 B   ---   --   ---xx   flac  0.5207  gd87-08-11 t19 Sugar Magnolia.flac
     1:49.57       19361708 B   ---   --   ---xx   flac  0.4366  gd87-08-11 t20 Encore Break.flac
     6:47.09       71816012 B   ---   --   ---xx   flac  0.4681  gd87-08-11 t21 Black Muddy River.flac
   140:16.34     1484663292 B                            0.4739  (21 files)


Show Checksums
ffp
gd87-08-11 t01 Cold Rain & Snow.flac:bd8e9bccb7c8d7e073f157243120efaa
gd87-08-11 t02 Little Red Rooster.flac:01fb6345366012fea188c41c699b3c5a
gd87-08-11 t03 Tons Of Steel.flac:8463ef486a551a074213e8e7031476ee
gd87-08-11 t04 High Time.flac:c79a8c5d89f24de27a12fd26188cfe96
gd87-08-11 t05 When I Paint My Masterpiece.flac:9866a5f972064380809fece34effeca5
gd87-08-11 t06 When Push Comes To Shove.flac:087f5f33f07397acd043cd41b753c5d8
gd87-08-11 t07 Let It Grow.flac:77e8c37f30287d8b9015ed3b37652e1a
gd87-08-11 t08 Crowd.flac:ca01b05f9a0b8d85661e8fb0757c0cea
gd87-08-11 t09 Crazy Fingers.flac:79450063c316ba196f027c692e061941
gd87-08-11 t10 Samson & Delilah.flac:a8332fad38717060ae0358f9c87cf34d
gd87-08-11 t11 Ship Of Fools.flac:33029071a206c04c88d35edbef7e6e3a
gd87-08-11 t12 Playin' In The Band.flac:586ffe5a29e2235386d4ccfd582a2c79
gd87-08-11 t13 China Doll.flac:1096bcd4d42bde3da1c46df8874def72
gd87-08-11 t14 Drums.flac:2953973d986594741e70d7a2c3e8d721
gd87-08-11 t15 Space.flac:9fe0615c190a76d0bb0d7726f71d235e
gd87-08-11 t16 All Along The Watchtower.flac:68ae4d940638848ba825a80b84f5f700
gd87-08-11 t17 Goin' Down The Road Feeling Bad.flac:99a69f4b4a73be841694f586ed8d49a8
gd87-08-11 t18 Around & Around.flac:8c1335d9c85db32d7a5944ec42264fd4
gd87-08-11 t19 Sugar Magnolia.flac:022abe7ff0e4f4af868f19777727bf01
gd87-08-11 t20 Encore Break.flac:12f2d655004cee7a1095603b0f787aab
gd87-08-11 t21 Black Muddy River.flac:69d4069a05f25c0c64e69b782b4f119b
flac-md5
24568e73813800abdb8c89fbd6d0f33d *gd87-08-11 t01 Cold Rain & Snow.flac
1cc5f9db6a79121537aac68d23f69115 *gd87-08-11 t02 Little Red Rooster.flac
48cc4411d10ca88a6e17fd86c0e7def6 *gd87-08-11 t03 Tons Of Steel.flac
ed8f6d797b6a45345457850f72204c76 *gd87-08-11 t04 High Time.flac
046188b61f0ddd73194520bb6ef320d5 *gd87-08-11 t05 When I Paint My Masterpiece.flac
e5922f2288b1de17e72ca51ba85687f2 *gd87-08-11 t06 When Push Comes To Shove.flac
db328c16bca4fc11a9d598e71e2fa579 *gd87-08-11 t07 Let It Grow.flac
c62d98137d838ed24eb135bdea7e2ab4 *gd87-08-11 t08 Crowd.flac
0098152f9ef90389d237985e021cc2ba *gd87-08-11 t09 Crazy Fingers.flac
6a30f37c7037b6ff2dcc3d545ab6f56f *gd87-08-11 t10 Samson & Delilah.flac
916239039aee77697b34a20ca2ad6dde *gd87-08-11 t11 Ship Of Fools.flac
91a3d367451bf69db605fb344edf1cfd *gd87-08-11 t12 Playin' In The Band.flac
61dc83cd7c5b65068468816095c77f7c *gd87-08-11 t13 China Doll.flac
ad021d9785ceb69e057fc47e2f0eeef8 *gd87-08-11 t14 Drums.flac
96aa3b4cd438ec79547a32d9f86db2cc *gd87-08-11 t15 Space.flac
0b04ff1e4b400c704db765df2bf3a24c *gd87-08-11 t16 All Along The Watchtower.flac
f752a2ecef86a0116d314add26f30426 *gd87-08-11 t17 Goin' Down The Road Feeling Bad.flac
ef80ef2347878286afad7b3af0163aed *gd87-08-11 t18 Around & Around.flac
a5910809104a7873575359cdeae6ab53 *gd87-08-11 t19 Sugar Magnolia.flac
da6a03458579ce11c5a216d2e71496d4 *gd87-08-11 t20 Encore Break.flac
7ecf25ed414879929f6926c28777b6ed *gd87-08-11 t21 Black Muddy River.flac

Comments
Add Comment
Other Sources (comments)
set 2; SBD> PCM> Dat> Cass>... (0) set 1; SBD> PCM> ??> Dat>... (0) SBD -> PCM -> CD -> EAC ->... (0) flac16; AUD Source:... (0) flac16; Source:... (0) flac16; Recording... (0) flac16; FOB Schoeps... (0) flac16;... (0) flac16; Matrix 2... (0) DTS-Audio-CD 5.1... (0) flac16/48kHz; 5.1... (0)
Date User Comment