Browse Collections Artists Sources   Search Dates

Add Show    List Management    Help


Grateful Dead 08/12/87
Red Rocks Amphitheatre, Morrison, CO
Comments Add Comment    Source Collectors    Add to Collection    Add to Want List    History
Source # 142089 Other Sources
Entered by Matt Vernon
Checksums ffp , flac-md5
Disc Counts 0 / 0
Media Size
Date Circulated
Date Added
05/28/2018
05/28/2018
Source Summary flac16; Source Info: Oade's Master (FOB) Audience PCM; Schoeps CMC3/MK41 mics > Oade M118 > Oade modified Sony PCM-F1; Transfer Info: Master Oade PCM > Sek'd Prodif > Samplitude (.wav 16-bit/44.1k)> hard disk > Adobe Audition 3.0 > TLH flac16 
  Archive
Source Information - Download Text | Download Zip
Grateful Dead
Red Rocks Amphitheatre
Morrison, CO
Wednesday August 12th, 1987

Source Info:
Oade's Master (FOB) Audience PCM; Schoeps CMC3/MK41 mics > Oade M118 > Oade modified Sony PCM-F1

Transfer Info:
Master Oade PCM > Sek'd Prodif > Samplitude (.wav 16-bit/44.1k)> hard disk > Adobe Audition 3.0 > TLH flac16

Notes:
- Thanks to the Oade brothers and crew for their master recording(s), as well as the proper transfer to hard disk
- Thanks to Blake Jacobs for the hard disk
- Thanks to Charlie Miller for coordinating this effort
- Other One space included in "The Other One"
- Another fine Oade capture

Mastered by Scott Clugston
May 22, 2018

Set One:
t01 - Crowd
t02 - Hell In A Bucket >
t03 - Sugaree
t04 - Never Trust A Woman
t05 - Cumberland Blues >
t06 - Mexicali Blues
t07 - Friend Of The Devil
t08 - My Brother Esau >
t09 - Bird Song >
t10 - The Music Never Stopped

Set Two:
t11 - Crowd
t12 - China Cat Sunflower >
t13 - I Know You Rider
t14 - Man Smart (Woman Smarter) >
t15 - Terrapin Station >
t16 - Drums >
t17 - Space >
t18 - The Other One >
t19 - Dear Mr. Fantasy >
t20 - Wharf Rat >
t21 - Turn On Your Lovelight
t22-  Encore Break
t23 - The Mighty Quinn (Quinn The Eskimo)



    length     expanded size    cdr  WAVE problems  fmt   ratio  filename
     0:33.17        5861228 B   ---   --   ---xx   flac  0.5095  gd87-08-12 t01 Crowd.flac
     6:04.01       64211996 B   ---   --   ---xx   flac  0.6314  gd87-08-12 t02 Hell In A Bucket.flac
    11:42.13      123863420 B   ---   --   ---xx   flac  0.5727  gd87-08-12 t03 Sugaree.flac
     5:18.05       56107004 B   ---   --   ---xx   flac  0.6028  gd87-08-12 t04 Never Trust A Woman.flac
     4:30.04       47637452 B   ---   --   ---xx   flac  0.6124  gd87-08-12 t05 Cumberland Blues.flac
     5:27.14       57715772 B   ---   --   ---xx   flac  0.5863  gd87-08-12 t06 Mexicali Blues.flac
     9:45.74      103368092 B   ---   --   ---xx   flac  0.5599  gd87-08-12 t07 Friend Of The Devil.flac
     4:42.51       49864796 B   ---   --   ---xx   flac  0.6025  gd87-08-12 t08 My Brother Esau.flac
     9:14.51       97845596 B   ---   --   ---xx   flac  0.5742  gd87-08-12 t09 Bird Song.flac
     7:28.57       79161308 B   ---   --   ---xx   flac  0.5947  gd87-08-12 t10 The Music Never Stopped.flac
     0:55.67        9859628 B   ---   --   ---xx   flac  0.3743  gd87-08-12 t11 Crowd.flac
     5:53.53       62393900 B   ---   --   ---xx   flac  0.5191  gd87-08-12 t12 China Cat Sunflower.flac
     5:31.35       58470764 B   ---   --   ---xx   flac  0.5466  gd87-08-12 t13 I Know You Rider.flac
     7:13.45       76487084 B   ---   --   ---xx   flac  0.5321  gd87-08-12 t14 Man Smart (Woman Smarter).flac
    11:56.23      126356540 B   ---   --   ---xx   flac  0.4931  gd87-08-12 t15 Terrapin Station.flac
     7:33.45       80015084 B   ---   --   ---xx   flac  0.4296  gd87-08-12 t16 Drums.flac
     2:14.03       23644700 B   ---   --   ---xx   flac  0.4056  gd87-08-12 t17 Space.flac
     8:34.70       90834284 B   ---   --   ---xx   flac  0.4334  gd87-08-12 t18 The Other One.flac
     3:59.46       42267836 B   ---   --   ---xx   flac  0.5105  gd87-08-12 t19 Dear Mr. Fantasy.flac
     8:19.72       88192988 B   ---   --   ---xx   flac  0.4696  gd87-08-12 t20 Wharf Rat.flac
     4:38.46       49147436 B   ---   --   ---xx   flac  0.5362  gd87-08-12 t21 Turn On Your Lovelight.flac
     1:44.47       18456188 B   ---   --   ---xx   flac  0.4332  gd87-08-12 t22 Encore Break.flac
     6:41.38       70825820 B   ---   --   ---xx   flac  0.4972  gd87-08-12 t23 The Mighty Quinn (Quinn The Eskino).flac
   140:04.52     1482588916 B                            0.5325  (23 files)


Show Checksums
ffp
gd87-08-12 t01 Crowd.flac:00bbce3404ac16e61ada4dbf91a201ce
gd87-08-12 t02 Hell In A Bucket.flac:443f3aae2046a535906e02e86a46df95
gd87-08-12 t03 Sugaree.flac:39bbbaade82326a33242dc1990f280a7
gd87-08-12 t04 Never Trust A Woman.flac:6d7338bdd97453d8fbd2fbeedcd642ac
gd87-08-12 t05 Cumberland Blues.flac:c6b823930451bcd63d539b34b2738176
gd87-08-12 t06 Mexicali Blues.flac:9ddc55bcd48738b09da5cf80ae689177
gd87-08-12 t07 Friend Of The Devil.flac:288338287380163fd7d4db1d65cca83f
gd87-08-12 t08 My Brother Esau.flac:d6c406e267ff799fbb04d06f62fec303
gd87-08-12 t09 Bird Song.flac:2b3a15775437399a39e6b623d0f57a24
gd87-08-12 t10 The Music Never Stopped.flac:35fa3a277686f7e5e4887387f836c9a8
gd87-08-12 t11 Crowd.flac:9cd3273af6834723d728d1b58d334aaf
gd87-08-12 t12 China Cat Sunflower.flac:bdcb12056d47cea58bdb7b4728b5f0e8
gd87-08-12 t13 I Know You Rider.flac:86eb4ea3289c31b78ea3b8b359e0b79f
gd87-08-12 t14 Man Smart (Woman Smarter).flac:8ff54666eb83e97879ce54ea974b0624
gd87-08-12 t15 Terrapin Station.flac:2cc093216794dc2f7c7f29099d21450b
gd87-08-12 t16 Drums.flac:72f368191801fc61e10da773c32e6e6a
gd87-08-12 t17 Space.flac:9f39d3e5af3b759040195dc88ea1df4d
gd87-08-12 t18 The Other One.flac:2ba45ff1d794cf9d004f2c79653710df
gd87-08-12 t19 Dear Mr. Fantasy.flac:1711401233905afc0c426937ce113bc4
gd87-08-12 t20 Wharf Rat.flac:fab5f068ecd23fe0d6cb371ce2454b11
gd87-08-12 t21 Turn On Your Lovelight.flac:96b9bfb2ddc84aa244984e58ad3c15a8
gd87-08-12 t22 Encore Break.flac:3e377acff672eacca7d9073b4074519f
gd87-08-12 t23 The Mighty Quinn (Quinn The Eskino).flac:df6015b9baec40b8318692b33435529b
flac-md5
72ddb33083c3c8dd2a1fb66a00e046ea *gd87-08-12 t01 Crowd.flac
05544f3051af618ff39ad3b7c8ac512b *gd87-08-12 t02 Hell In A Bucket.flac
1228683af674ddc9300d784275fd07f7 *gd87-08-12 t03 Sugaree.flac
0a7000c8b5e6b00421c8e2debebcb756 *gd87-08-12 t04 Never Trust A Woman.flac
44c9fe64e29bec8e8b35895435abc9f4 *gd87-08-12 t05 Cumberland Blues.flac
db8fbf88f801b941e917b7e81f7f9b8a *gd87-08-12 t06 Mexicali Blues.flac
40a8cbb86ce5821ca2f09d199f5132e5 *gd87-08-12 t07 Friend Of The Devil.flac
eb913f7930dc6eb27d062524d70d4edf *gd87-08-12 t08 My Brother Esau.flac
12b5de1647c135fa1f0721abbc3dbc40 *gd87-08-12 t09 Bird Song.flac
08162813cc5c00a35ede6afdb9e20101 *gd87-08-12 t10 The Music Never Stopped.flac
c6c2f7084c3c7ad8bbfeeb8a33e533a5 *gd87-08-12 t11 Crowd.flac
b9dcf18ed2fb2d6c99252fbec3eeeda5 *gd87-08-12 t12 China Cat Sunflower.flac
3411cbedc636e4cbc274f1a53436222b *gd87-08-12 t13 I Know You Rider.flac
b03e4e0adab6c2c58d6182390c6a6cf1 *gd87-08-12 t14 Man Smart (Woman Smarter).flac
22bbca756a28949e75b6dbfac09c878d *gd87-08-12 t15 Terrapin Station.flac
de13e25c47d40f30e1005ad022364a9a *gd87-08-12 t16 Drums.flac
4f0ab1ee381b63382eb7ca54f894023e *gd87-08-12 t17 Space.flac
244647b6defb2f49d13ffa823f16fc0d *gd87-08-12 t18 The Other One.flac
7555fc691b53e5d3df1452835f505389 *gd87-08-12 t19 Dear Mr. Fantasy.flac
95fdb76ed2dc8460a4de84676b7bc74f *gd87-08-12 t20 Wharf Rat.flac
1ea85e3a3c513b1c1c194fb2a1d763cc *gd87-08-12 t21 Turn On Your Lovelight.flac
b4a12f18c334c5ca64d2df1fcf840227 *gd87-08-12 t22 Encore Break.flac
f2eb821e2b44f55c77b4c21fcb237b61 *gd87-08-12 t23 The Mighty Quinn (Quinn The Eskino).flac

Comments
Add Comment
Other Sources (comments)
Nak CM 100>MC>DAT>CD; via... (2) AUD (Nak... (2) flac16; Schoeps CMC... (0) flac16; Recording... (0) AUD Source: Nakamichi... (0) flac16; Source:... (0) flac16; Recording... (0)
Date User Comment