Browse Collections Artists Sources   Search Dates

Add Show    List Management    Help


Grateful Dead 08/13/87
Red Rocks Amphitheatre, Morrison, CO
Comments Add Comment    Source Collectors    Add to Collection    Add to Want List    History
Source # 142090 Other Sources
Entered by Matt Vernon
Checksums ffp , flac-md5
Disc Counts 0 / 0
Media Size
Date Circulated
Date Added
05/28/2018
05/28/2018
Source Summary flac16; Source Info: Oade's Master (FOB) Audience PCM; Schoeps CMC3/MK41 mics > Oade M118 > Oade modified Sony PCM-F1; Transfer Info: Master Oade PCM > Sek'd Prodif > Samplitude (.wav 16-bit/44.1k)> hard disk > Adobe Audition 3.0 > TLH flac16 
  Archive
Source Information - Download Text | Download Zip
Grateful Dead
Red Rocks Amphitheatre
Morrison, CO
Thursday August 13th, 1987

Source Info:
Oade's Master (FOB) Audience PCM; Schoeps CMC3/MK41 mics > Oade M118 > Oade modified Sony PCM-F1

Transfer Info:
Master Oade PCM > Sek'd Prodif > Samplitude (.wav 16-bit/44.1k)> hard disk > Adobe Audition 3.0 > TLH flac16

Notes:
- Thanks to the Oade brothers and crew for their master recording(s), as well as the transfer to hard disk
- Thanks to Blake Jacobs for the hard disk
- Thanks to Charlie Miller for coordinating this effort
- Another fine Oade capture

Mastered by Scott Clugston
May 24, 2018

Set One:
t01 - Crowd
t02 - Big Boss Man
t03 - Jack Straw
t04 - Row Jimmy
t05 - It's All Over Now
t06 - Loser
t07 - Cassidy
t08 - Far From Me
t09 - Box of Rain

Set Two:
t10 - Crowd
t11 - Uncle John's Band >
t12 - Estimated Prophet >
t13 - He's Gone >
t14 - Drums >
t15 - Space >
t16 - The Wheel >
t17 - Gimme Some Lovin' >
t18 - Stella Blue >
t19 - Throwing Stones >
t20 - Not Fade Away
t21 - Not Fade Away Chant
t22 - Not Fade Away >
t23 - Touch Of Grey >
t24 - Knockin' On Heaven's Door


    length     expanded size    cdr  WAVE problems  fmt   ratio  filename
     0:18.26        3236396 B   ---   --   ---xx   flac  0.4439  gd87-08-13 t01 Crowd.flac
     6:31.44       69075932 B   ---   --   ---xx   flac  0.4641  gd87-08-13 t02 Big Boss Man.flac
     5:26.68       57666380 B   ---   --   ---xx   flac  0.5217  gd87-08-13 t03 Jack Straw.flac
    10:12.12      107985068 B   ---   --   ---xx   flac  0.4790  gd87-08-13 t04 Row Jimmy.flac
     7:15.66       76889276 B   ---   --   ---xx   flac  0.5133  gd87-08-13 t05 It's All Over Now.flac
     8:51.53       93793100 B   ---   --   ---xx   flac  0.4604  gd87-08-13 t06 Loser.flac
     7:31.61       79699916 B   ---   --   ---xx   flac  0.4936  gd87-08-13 t07 Cassidy.flac
     4:21.22       46092188 B   ---   --   ---xx   flac  0.5162  gd87-08-13 t08 Far From Me.flac
     5:15.09       55587212 B   ---   --   ---xx   flac  0.5083  gd87-08-13 t09 Box Of Rain.flac
     1:35.58       16894460 B   ---   --   ---xx   flac  0.3727  gd87-08-13 t10 Crowd.flac
     6:47.25       71853644 B   ---   --   ---xx   flac  0.5073  gd87-08-13 t11 Uncle John's Band.flac
    10:23.20      109944284 B   ---   --   ---xx   flac  0.5158  gd87-08-13 t12 Estimated Prophet.flac
    11:00.31      116496956 B   ---   --   ---xx   flac  0.4683  gd87-08-13 t13 He's Gone.flac
     9:14.52       97847948 B   ---   --   ---xx   flac  0.4525  gd87-08-13 t14 Drums.flac
     5:57.23       63028940 B   ---   --   ---xx   flac  0.3627  gd87-08-13 t15 Space.flac
     4:50.18       51198380 B   ---   --   ---xx   flac  0.4949  gd87-08-13 t16 The Wheel.flac
     5:00.66       53075276 B   ---   --   ---xx   flac  0.5349  gd87-08-13 t17 Gimme Some Lovin'.flac
     8:40.22       91779788 B   ---   --   ---xx   flac  0.4385  gd87-08-13 t18 Stella Blue.flac
     8:31.43       90241580 B   ---   --   ---xx   flac  0.5234  gd87-08-13 t19 Throwing Stones.flac
     6:31.66       69127676 B   ---   --   ---xx   flac  0.5011  gd87-08-13 t20 Not Fade Away.flac
     2:32.01       26815196 B   ---   --   ---xx   flac  0.4376  gd87-08-13 t21 Not Fade Away Chant.flac
     0:56.39        9970172 B   ---   --   ---xx   flac  0.4291  gd87-08-13 t22 Not Fade Away.flac
     6:08.37       65002268 B   ---   --   ---xx   flac  0.5494  gd87-08-13 t23 Touch Of Grey.flac
     8:43.43       92358380 B   ---   --   ---xx   flac  0.4485  gd87-08-13 t24 Knockin' On Heaven's Door.flac
   152:39.05     1615660416 B                            0.4825  (24 files)


Show Checksums
ffp
gd87-08-13 t01 Crowd.flac:2997a2995a214d3b4a8d42ae85c73613
gd87-08-13 t02 Big Boss Man.flac:d0e74dccf1e773b55dfcdba52090fff4
gd87-08-13 t03 Jack Straw.flac:55e0db1bd635ecb5f3675ee9dcb8cb99
gd87-08-13 t04 Row Jimmy.flac:42a98c55d5fef7a0f086f7c00d6be36e
gd87-08-13 t05 It's All Over Now.flac:6e5a1f4be7e254292e14699a873fbfa9
gd87-08-13 t06 Loser.flac:d607c33c5c84c22c335e4b5340ba0dbc
gd87-08-13 t07 Cassidy.flac:0448766de248e933224be011deea98b2
gd87-08-13 t08 Far From Me.flac:2eb5dd10977efddd32dedb48224f51df
gd87-08-13 t09 Box Of Rain.flac:e9f277d6de1224386a6c6b35878acd1a
gd87-08-13 t10 Crowd.flac:df0db9e4032a9b5e157661fdabbbc52e
gd87-08-13 t11 Uncle John's Band.flac:47c781e9616f69a4d300aa33ffb75d5c
gd87-08-13 t12 Estimated Prophet.flac:cdd9013f31573f7cd81831ed55131861
gd87-08-13 t13 He's Gone.flac:d9e2a855729e427999f66f35182c8140
gd87-08-13 t14 Drums.flac:96dfa3c24fdb7b3b48f983af2db6476e
gd87-08-13 t15 Space.flac:5e35559e2d0b981d97295d77e2bc6295
gd87-08-13 t16 The Wheel.flac:1211af632f058282bdd6d270276d8f48
gd87-08-13 t17 Gimme Some Lovin'.flac:51eccaa9bedc96ca89246427f0185ca2
gd87-08-13 t18 Stella Blue.flac:3a126c695cd7eb29faea7a9ef3b96ccc
gd87-08-13 t19 Throwing Stones.flac:5ed852d1067623cce2d4169a0e062009
gd87-08-13 t20 Not Fade Away.flac:ef5835a8f43129f1775f7c0169da7ed6
gd87-08-13 t21 Not Fade Away Chant.flac:c8ebc7f8376b374be94aa7d5fe4693fc
gd87-08-13 t22 Not Fade Away.flac:66757cd95dfd4ce5a35a748c3113edb4
gd87-08-13 t23 Touch Of Grey.flac:b8d10d40d7419fe362dffa0543d3c812
gd87-08-13 t24 Knockin' On Heaven's Door.flac:e8437207c733052053711099b77fe890
flac-md5
41ddd61da2d706ff35de2ddc188a7ca3 *gd87-08-13 t01 Crowd.flac
5f76dd52075e3b821e2f05913d8b25a9 *gd87-08-13 t02 Big Boss Man.flac
a85f97296e2c48f517fe96deb172a93f *gd87-08-13 t03 Jack Straw.flac
3fbb1d90ec3f3b19704fce6c979fed9e *gd87-08-13 t04 Row Jimmy.flac
888fc7f8a24d8beba9d4d34ee3e07acb *gd87-08-13 t05 It's All Over Now.flac
605fd163630310c04286733135d76623 *gd87-08-13 t06 Loser.flac
78ee435464b9a0c3ef64d3a48b08d66c *gd87-08-13 t07 Cassidy.flac
13bf4a8a730c536eac41d64400b9db1f *gd87-08-13 t08 Far From Me.flac
421e8e8cb8acd76235e44d635ef0e04f *gd87-08-13 t09 Box Of Rain.flac
7ea71781a65592f108e2c1955fcfad66 *gd87-08-13 t10 Crowd.flac
4f57ffbf18e43463957d7b91854dde08 *gd87-08-13 t11 Uncle John's Band.flac
547ffc40cd2992ecabdbcc2bdbd1b794 *gd87-08-13 t12 Estimated Prophet.flac
9f3d840d0dbc7bacfa80087f29ad69ed *gd87-08-13 t13 He's Gone.flac
1ff83c7cbadc8580ff828af60366812e *gd87-08-13 t14 Drums.flac
8e66fcf7ff8ba1a1faace3526ec92451 *gd87-08-13 t15 Space.flac
bfb4fadc7dc1976a73b7bd020c865b1c *gd87-08-13 t16 The Wheel.flac
2d7495b84a0805043884e74ce2744dc9 *gd87-08-13 t17 Gimme Some Lovin'.flac
227dc3cc6ef774e006623cea37ce473c *gd87-08-13 t18 Stella Blue.flac
2dffd71a7a48fee66f5ce84985027b65 *gd87-08-13 t19 Throwing Stones.flac
af27948a88a72b289a8793495455eeb4 *gd87-08-13 t20 Not Fade Away.flac
7d3049b9fb1ef5d9f29e99e9a15aeef6 *gd87-08-13 t21 Not Fade Away Chant.flac
86531224b970d64ea79320d931113915 *gd87-08-13 t22 Not Fade Away.flac
61427579e9786cd3f2ff5376084c2f60 *gd87-08-13 t23 Touch Of Grey.flac
d3ae60214396a75caeb2663323c399d1 *gd87-08-13 t24 Knockin' On Heaven's Door.flac

Comments
Add Comment
Other Sources (comments)
sbd > mc > dat X3 > wav >... (0) S:?>D>CD via Chris Larson (0) flac16; AUD Source:... (0) flac16; Source:... (0)
Date User Comment