Browse Collections Artists Sources   Search Dates

Add Show    List Management    Help


Grateful Dead 04/19/87
Irvine Meadows, Irvine, CA
Comments Add Comment    Source Collectors    Add to Collection    Add to Want List    History
Source # 142119 Other Sources
Entered by Matt Vernon
Checksums ffp , flac-md5
Disc Counts 0 / 0
Media Size
Date Circulated
Date Added
06/01/2018
06/01/2018
Source Summary flac24; Recording Info: UltraMatrix SBD > Cassette Master (TDK MA-R90); Transfer Info: Cassette Master (Nakamichi CR-7A) > Tascam DA-3000 (DSF 1-bit/5.6 MHz) > KORG AudioGate 4 > Adobe Audition CC2015 > Samplitude Pro X3 Suite > FLAC/24; All Transfers and Mastering By Charlie Miller 
  Archive
Source Information - Download Text | Download Zip
Grateful Dead - April 19, 1987
Irvine Meadows - Laguna Hills, CA

Recording Info:
UltraMatrix SBD > Cassette Master (TDK MA-R90)

Transfer Info:
Cassette Master (Nakamichi CR-7A) > Tascam DA-3000 (DSF 1-bit/5.6 MHz) >
KORG AudioGate 4 > Adobe Audition CC2015 > Samplitude Pro X3 Suite > FLAC/24
(1 DVD FLAC)

All Transfers and Mastering By Charlie Miller
[email protected]
May 31, 2018

Notes:
-- This is a different mix than other circulating soundboards
-- Two sets of masters were used to make this show complete

Set 1:
01 - Tuning
02 - Mississippi Half-Step Uptown Toodeloo >
03 - Franklin's Tower
04 - New Minglewood Blues
05 - Ramble On Rose
06 - Tons Of Steel
07 - Box Of Rain
08 - Cassidy
09 - Alabama Getaway >
10 - Promised Land
11 - Bill Graham Announcement

Set 2:
12 - Tuning
13 - China Cat Sunflower >
14 - I Know You Rider >
15 - Man Smart (Woman Smarter) >
16 - Black Muddy River >
17 - I Need A Miracle >
18 - Cumberland Blues >
19 - Drums >
20 - Space >
21 - The Other One >
22 - Wharf Rat >
23 - Not Fade Away

Encore:
24 - Not Fade Away >
25 - Brokedown Palace


SHNTOOL OUTPUT:
    length     expanded size    cdr  WAVE problems  fmt   ratio  filename
     2:21.929      81751280 B   cxx   --   ---xx   flac  0.4592  01 Tuning.flac
     7:13.866     249906602 B   cxx   --   ---xx   flac  0.6712  02 Mississippi Half-Step Uptown Toodeloo.flac
     7:56.187     274283582 B   cxx   --   ---xx   flac  0.6598  03 Franklin's Tower.flac
    10:10.201     351475946 B   cxx   --   ---xx   flac  0.6587  04 New Minglewood Blues.flac
     8:56.654     309112778 B   cxx   --   ---xx   flac  0.6653  05 Ramble On Rose.flac
     5:09.853     178475084 B   cxx   --   ---xx   flac  0.6846  06 Tons Of Steel.flac
     5:42.539     197302604 B   cxx   --   ---xx   flac  0.6668  07 Box Of Rain.flac
     8:46.196     303089198 B   cxx   --   ---xx   flac  0.6599  08 Cassidy.flac
     4:42.270     162587360 B   cxx   --   ---xx   flac  0.6721  09 Alabama Getaway.flac
     4:36.156     159065798 B   cxx   --   ---xx   flac  0.6718  10 Promised Land.flac
     0:45.379      26138396 B   cxx   --   ---xx   flac  0.6303  11 Bill Graham Announcement.flac
     2:04.010      71429540 B   cxx   --   ---xx   flac  0.4626  12 Tuning.flac
     5:47.517     200169590 B   cxx   --   ---xx   flac  0.6681  13 China Cat Sunflower.flac
     5:56.592     205396814 B   cxx   --   ---xx   flac  0.6599  14 I Know You Rider.flac
     8:39.681     299336510 B   cxx   --   ---xx   flac  0.6570  15 Man Smart (Woman Smarter).flac
     6:51.381     236955734 B   cxx   --   ---xx   flac  0.6542  16 Black Muddy River.flac
     4:28.775     154814210 B   cxx   --   ---xx   flac  0.6662  17 I Need A Miracle.flac
     4:58.574     171978536 B   cxx   --   ---xx   flac  0.6721  18 Cumberland Blues.flac
     9:41.291     334823744 B   cxx   --   ---xx   flac  0.6298  19 Drums.flac
     5:10.186     178666946 B   cxx   --   ---xx   flac  0.6144  20 Space.flac
     8:45.684     302793746 B   cxx   --   ---xx   flac  0.6525  21 The Other One.flac
     9:30.953     328869020 B   cxx   --   ---xx   flac  0.6505  22 Wharf Rat.flac
     9:10.444     317056004 B   cxx   --   ---xx   flac  0.6487  23 Not Fade Away.flac
     0:45.291      26087462 B   cxx   --   ---xx   flac  0.6436  24 Not Fade Away.flac
     6:48.406     235241726 B   cxx   --   ---xx   flac  0.6570  25 Brokedown Palace.flac
   155:00.012    5356808210 B                            0.6518  (25 files)


Show Checksums
ffp
01 Tuning.flac:f400e55b0617e0e6f3e75691eaefa9b9
02 Mississippi Half-Step Uptown Toodeloo.flac:a7fc6180d1042b5bd29dcc28c41dd612
03 Franklin's Tower.flac:2e5989fa9bd6c9ecfcb600daba2473de
04 New Minglewood Blues.flac:24faffc9c86657e38860d3284efdb13b
05 Ramble On Rose.flac:a79d1396b4a1ddb3bb33fe97e5d30bbf
06 Tons Of Steel.flac:d54bf735ce2c541b0ae231b99cde1584
07 Box Of Rain.flac:da06c53cc5a87394e07c50a507666435
08 Cassidy.flac:4f03177bc70e4d83d8ab4ed896d8c794
09 Alabama Getaway.flac:168633e08dbbd326748f1c72ab9fea23
10 Promised Land.flac:b69b8ec26467f5d2b9c355a8b9d4f841
11 Bill Graham Announcement.flac:09a62440321e315a3c1a6bdf11f59ded
12 Tuning.flac:e775c8656105c33e48eb7d24d949869f
13 China Cat Sunflower.flac:89c9579766d4c34102acb72ea3ff35c7
14 I Know You Rider.flac:9e64f6d2b5b6ed4a518edde12338d5cc
15 Man Smart (Woman Smarter).flac:40f913e93e6f78c63ead3b9a170bcf2f
16 Black Muddy River.flac:1ec57c2dc5399cba6bd4d081ff76cf8d
17 I Need A Miracle.flac:f477e5342a3c3cb702a44eee54a670db
18 Cumberland Blues.flac:44242abd3b9604f5fc4e11e097928f98
19 Drums.flac:7274d2b922547969e4ffb8dc0790c92a
20 Space.flac:3d972edaed3feb85a1959a6a7e76770d
21 The Other One.flac:3273cd6dd2fe03becd989a7287ddfb14
22 Wharf Rat.flac:c54def90d0fceac5011a3f93b524dc94
23 Not Fade Away.flac:a6de3abe5e05b3649989735cfd025b15
24 Not Fade Away.flac:727e85ae53e50aa6e7a40768a2a44743
25 Brokedown Palace.flac:3229fd1a41699444fd7278a3ca1bd5bf
flac-md5
53b569137e983fdf2239363df834b90d *01 Tuning.flac
75b20360d41ce81b59cd1024369f037a *02 Mississippi Half-Step Uptown Toodeloo.flac
a0ec4d8e84271928535e82ef9e6ab157 *03 Franklin's Tower.flac
3fb156ed5f284bee4ace52d55fc42a87 *04 New Minglewood Blues.flac
c2a81e9459eab1d459496c47f7e59430 *05 Ramble On Rose.flac
67e63befa1844b339e8891882926941e *06 Tons Of Steel.flac
fbae7a438b433b204797f4a461068b8e *07 Box Of Rain.flac
bf3436127e2db8d84dfea3fcc0f2b52e *08 Cassidy.flac
d78f35c6eb0c748362740fb3da39b260 *09 Alabama Getaway.flac
e2c7b887f161cfd81b8d45159748fa38 *10 Promised Land.flac
20120c8382065b2cfcd7e4f329242cab *11 Bill Graham Announcement.flac
81d9e33e0e7180212700fa116142217a *12 Tuning.flac
1f524917fa588684cd0378bf1962ac28 *13 China Cat Sunflower.flac
a7be93e8047ac21a7224a95af26793ea *14 I Know You Rider.flac
b5a0fd0cdca408a1f6c73ad3a96dd25e *15 Man Smart (Woman Smarter).flac
2fc4c91fcdb22acb6625be95543e081f *16 Black Muddy River.flac
dc2343f4e8c58f6d22e3796b9357fa6a *17 I Need A Miracle.flac
f61a819224aa68cb7c8cec483872b42f *18 Cumberland Blues.flac
a03653d330c1d34085ca1330f6808fc6 *19 Drums.flac
d919e9b3a0f0dad8b818660dacce3562 *20 Space.flac
8180fa1422086850e354f96a8693ddbe *21 The Other One.flac
b7689d2c3287304372f1ea849b2f1952 *22 Wharf Rat.flac
2cc26bc998a59f31263f1e1cf500fdc7 *23 Not Fade Away.flac
90ef41ede36f59f516e2a814f2aad639 *24 Not Fade Away.flac
ef30969c94058a87d554ba75dd006f01 *25 Brokedown Palace.flac

Comments
Add Comment
Other Sources (comments)
SBD > Cass Master > PCM >... (1) Healy Ultramix SBD/AUD> CM>... (0) Master Soundboard Casette >... (0) flac16; source:... (1) flac16; Recording... (0) flac16; Audience... (0) flac16; Digital... (0) flac16; Recording... (0)
Date User Comment