Browse Collections Artists Sources   Search Dates Setlists

Add Show    List Management    Forums    Help


Grateful Dead 04/06/69
Avalon Ballroom, San Francisco, CA
Comments Add Comment    Source Collectors    Add to Collection    Add to Want List    History
Source # 142124 Other Sources
Entered by Matt Vernon
Checksums ffp , flac-md5
Disc Counts 0 / 0
Media Size
Date Circulated
Date Added
06/03/2018
06/03/2018
Source Summary flac16/48kHz; Source Info: FM Broadcast (KPFA/KPFB)> Tom Ordon's Master FM Reels > Matt Smith's 1st Generation Reels; Transfer Info: 1st Generation Reels (Technics RS-1506)> Tascam DA-3000 (DSF 1-bit/5.6 MHz) > dBpoweramp .wav 24/96 > Adobe Audition 3.0 24/96 > TLH flac2496; This is a 16/48 fileset. 24-bit > 16-bit via dBpoweramp 
  Archive
Source Information - Download Text | Download Zip
Grateful Dead

Avalon Ballroom

San Francisco, CA
Sunday April 6th, 1969

This is a 16/48 fileset. 24-bit > 16-bit via dBpoweramp



Source Info:
FM Broadcast (KPFA/KPFB)> Tom Ordon's Master FM Reels > Matt Smith's 1st Generation Reels

Transfer Info:
1st Generation Reels (Technics RS-1506)> Tascam DA-3000 (DSF 1-bit/5.6 MHz) > dBpoweramp .wav 24/96 > Adobe Audition 3.0 24/96 > TLH flac2496

Notes:
- Thanks to Tom Ordon for recording the FM broadcast
- Thanks to Matt Smith for the 1st Generation Reel source and transfer
- Thanks to Charlie Miller for coordinating this effort
- DJ banter and tunings intact
- "Good Morning Little Schoolgirl" fades in , several minutes missing
- Cut in "Good Morning Little Schoolgirl"
- First notes of "Cryptical Envelopment" clipped
- Conclusion of "Viola Lee Blues" sung acapella after the plug is pulled on their instruments, presumably, for playing past curfew
- Pitch corrected

Mastered by Scott Clugston
May 31, 2018


Set One:

t01 - DJ Intro >
      //Good Morning Little Schoolgirl

t02 - Beat It On Down The Line

t03 - It's All Over Now, Baby Blue

t04 - I'm A King Bee


Set Two:

t05 - DJ Intro >
      //Cryptical Envelopment >

      Drums >

t06 - The Other One >

t07 - Cryptical Envelopment >
t08 - Death Don't Have No Mercy
t09 - Turn On Your Lovelight

t10 - Viola Lee Blues


    length     expanded size    cdr  WAVE problems  fmt   ratio  filename
     7:53.827      90974764 B   cxx   --   ---xx   flac  0.5687  gd69-04-06 t01 Good Morning Little Schoolgirl.flac
     3:30.280      40373804 B   cxx   --   ---xx   flac  0.5855  gd69-04-06 t02 Beat It On Down The Line.flac
     7:55.693      91333164 B   cxx   --   ---xx   flac  0.5451  gd69-04-06 t03 It's All Over, Baby Blue.flac
     7:46.360      89541164 B   cxx   --   ---xx   flac  0.5682  gd69-04-06 t04 I'm A King Bee.flac
     2:11.520      25251884 B   cxx   --   ---xx   flac  0.6430  gd69-04-06 t05 Cryptical-Drums.flac
    10:52.720     125322284 B   cxx   --   ---xx   flac  0.6775  gd69-04-06 t06 The Other One.flac
    10:14.133     117913644 B   cxx   --   ---xx   flac  0.6626  gd69-04-06 t07 Cryptical Envelopment.flac
    11:52.693     136837164 B   cxx   --   ---xx   flac  0.6279  gd69-04-06 t08 Death Don't Have No Mercy.flac
    25:06.760     289297964 B   cxx   --   ---xx   flac  0.6641  gd69-04-06 t09 Turn On Your Lovelight.flac
    12:52.961     148408488 B   cxx   --   ---xx   flac  0.6766  gd69-04-06 t10 Viola Lee Blues.flac
   100:16.947    1155254324 B                            0.6352  (10 files)


Show Checksums
ffp
gd69-04-06 t01 Good Morning Little Schoolgirl.flac:76c28f56707c6a982eb600506d874c09
gd69-04-06 t02 Beat It On Down The Line.flac:4ae9b6ef4555574f7327104453e043c7
gd69-04-06 t03 It's All Over, Baby Blue.flac:8e16e4e91fa41f5b320a70d7e7d6bd6a
gd69-04-06 t04 I'm A King Bee.flac:f72817b7d48ddb0280128c6fb84f8958
gd69-04-06 t05 Cryptical-Drums.flac:791b12393ed8c062434333307613d02d
gd69-04-06 t06 The Other One.flac:4f00d038c6dcf2a1867329bc469d518d
gd69-04-06 t07 Cryptical Envelopment.flac:f60e371cc888c4209c3d3b3c70a4bb29
gd69-04-06 t08 Death Don't Have No Mercy.flac:40add063b972df4175130042420b20b1
gd69-04-06 t09 Turn On Your Lovelight.flac:92b23c84a1d8c8806b143e410a765712
gd69-04-06 t10 Viola Lee Blues.flac:46f73da8a7e74c56aebd428f118e7a68
flac-md5
47ae2b328814506eeca72df9c7819336 *gd69-04-06 t01 Good Morning Little Schoolgirl.flac
454e47e5ffe495a4af9d473528a32f31 *gd69-04-06 t02 Beat It On Down The Line.flac
fc754a9d60dc4aaf575bf311c349a777 *gd69-04-06 t03 It's All Over, Baby Blue.flac
c6635cac3e737e4f9a40c0a0526449f3 *gd69-04-06 t04 I'm A King Bee.flac
915275fee6251694d59dfb07fa9d3c81 *gd69-04-06 t05 Cryptical-Drums.flac
faef3a70aea2b333e72696d8610e4015 *gd69-04-06 t06 The Other One.flac
1262270758504b35a461eb0b4ff16582 *gd69-04-06 t07 Cryptical Envelopment.flac
03ff510b96d6cd300a969e82f40bac35 *gd69-04-06 t08 Death Don't Have No Mercy.flac
7d777ec9bf852bc1a40618210b2f74d7 *gd69-04-06 t09 Turn On Your Lovelight.flac
70f91f27860bc34b1d92c05613501f27 *gd69-04-06 t10 Viola Lee Blues.flac

Comments
Add Comment
Other Sources (comments)
SBD : FM > MR > C1 > DAT >... (0) SBD>FM>MR>C>D>CD; via Joe... (1) flac16; Unknown... (0) flac24; Source Info:... (0)
Date User Comment