Browse Collections Artists Sources   Search Dates

Add Show    List Management    Help


Grateful Dead 07/06/87
Civic Arena, Pittsburgh, PA
Comments Add Comment    Source Collectors    Add to Collection    Add to Want List    History
Source # 142126 Other Sources
Entered by Matt Vernon
Checksums flac-md5 , ffp
Disc Counts 0 / 0
Media Size Compressed: 875.89 MB (918441984 bytes)
Date Circulated
Date Added
06/03/2018
06/03/2018
Source Summary flac16; Recording Info: UltraMatrix SBD > Beta HiFi Master (TDK HS); Transfer Info: Beta HiFi Master (Sony SL-HF66) > Tascam DA-3000 (DSF 1-bit/5.6 MHz) > dBpoweramp > Samplitude Pro X3 Suite > FLAC/24; All Transfers and Mastering by Charlie Miller 
  Archive
Source Information - Download Text | Download Zip
Grateful Dead - July 6, 1987
Pittsburgh Civic Arena - Pittsburgh, PA

Recording Info:
UltraMatrix SBD > Beta HiFi Master (TDK HS)

Transfer Info:
Beta HiFi Master (Sony SL-HF66) > Tascam DA-3000 (DSF 1-bit/5.6 MHz) >
dBpoweramp > Samplitude Pro X3 Suite > FLAC/24
(1 DVD FLAC)

All Transfers and Mastering by Charlie Miller
[email protected]
May 27, 2018

Notes:
-- Iko Iko thru Drums and Johnny B. Goode with The Neville Brothers
-- This file set is 16 bit @ 44.1

Set 1:
01 - Tuning
02 - Feel Like A Stranger >
03 - Franklin's Tower
04 - New Minglewood Blues
05 - Row Jimmy
06 - Mama Tried >
07 - Big River
08 - Far From Me
09 - Stagger Lee
10 - Desolation Row >
11 - Don't Ease Me In

Set 2:
12 - Tuning
13 - Shakedown Street >
14 - Samson And Delilah
15 - Iko Iko >
16 - Banana Boat Song (Day-O) >
17 - Man Smart (Woman Smarter) >
18 - Drums >
19 - Space >
20 - Knockin' On Heaven's Door >
21 - Good Lovin'

Encore:
22 - Encore Break
23 - Johnny B. Goode


SHNTOOL OUTPUT:
    length     expanded size    cdr  WAVE problems  fmt   ratio  filename
     2:02.39       21612572 B   ---   --   ---xx   flac  0.4261  01 Tuning.flac
     7:22.33       78046460 B   ---   --   ---xx   flac  0.5690  02 Feel Like A Stranger.flac
     8:32.57       90450908 B   ---   --   ---xx   flac  0.5937  03 Franklin's Tower.flac
     8:41.54       92031452 B   ---   --   ---xx   flac  0.6012  04 New Minglewood Blues.flac
    10:05.42      106820828 B   ---   --   ---xx   flac  0.5692  05 Row Jimmy.flac
     2:35.72       27511388 B   ---   --   ---xx   flac  0.6174  06 Mama Tried.flac
     7:12.18       76247180 B   ---   --   ---xx   flac  0.5971  07 Big River.flac
     6:08.44       65018732 B   ---   --   ---xx   flac  0.5876  08 Far From Me.flac
     5:09.54       54634652 B   ---   --   ---xx   flac  0.5977  09 Stagger Lee.flac
    10:32.21      111534236 B   ---   --   ---xx   flac  0.5983  10 Desolation Row.flac
     3:44.03       39520700 B   ---   --   ---xx   flac  0.6378  11 Don't Ease Me In.flac
     0:51.72        9165788 B   ---   --   ---xx   flac  0.5002  12 Tuning.flac
    12:14.36      129562316 B   ---   --   ---xx   flac  0.6109  13 Shakedown Street.flac
     8:10.03       86443100 B   ---   --   ---xx   flac  0.5809  14 Samson And Delilah.flac
     6:01.29       63748652 B   ---   --   ---xx   flac  0.6157  15 Iko Iko.flac
     2:22.59       25187612 B   ---   --   ---xx   flac  0.6090  16 Banana Boat Song (Day-O).flac
     6:15.63       66298220 B   ---   --   ---xx   flac  0.6230  17 Man Smart (Woman Smarter).flac
     8:35.12       90874268 B   ---   --   ---xx   flac  0.4821  18 Drums.flac
     8:35.43       90947180 B   ---   --   ---xx   flac  0.4617  19 Space.flac
     9:02.18       95651180 B   ---   --   ---xx   flac  0.5691  20 Knockin' On Heaven's Door.flac
     7:46.30       82273004 B   ---   --   ---xx   flac  0.6150  21 Good Lovin'.flac
     3:31.59       37359212 B   ---   --   ---xx   flac  0.5187  22 Encore Break.flac
     4:29.57       47585708 B   ---   --   ---xx   flac  0.6214  23 Johnny B Goode.flac
   150:05.18     1588525348 B                            0.5781  (23 files)



Show Checksums
flac-md5
aa29a231c9d40d903ecf243f86f85d84 *01 Tuning.flac
c7aefeb99ec3cbe28cf0a3c25fdc97c1 *02 Feel Like A Stranger.flac
a7629f0912821a6ae0b95cad5b5bdc7b *03 Franklin's Tower.flac
469a2a0c0ea2f5a24b9865a1dc218fbc *04 New Minglewood Blues.flac
69390d0224a11131d8f9181a4e64d1c9 *05 Row Jimmy.flac
53ca499f7012fb129a350e3198cf8a64 *06 Mama Tried.flac
436ec482a2702e3c8da7045a8dfa7b14 *07 Big River.flac
13e2a968090e1afc35d6eb6f04bc96d6 *08 Far From Me.flac
bc44c5619b4e5c0992127e57cbee97ec *09 Stagger Lee.flac
63affca96a7637b66be38c7bc0de70fa *10 Desolation Row.flac
1a1646470f43bb26f9171fd9c45cc832 *11 Don't Ease Me In.flac
33f15561f576ed8164be9b1ed7b2ea2f *12 Tuning.flac
793ef47ed51ca5c447c48c635defe2c1 *13 Shakedown Street.flac
08d780f7be67ded1de474816f79eab7a *14 Samson And Delilah.flac
aff5075d8457441e548e082688274e97 *15 Iko Iko.flac
785caf215957560b6e57fde7a87ce159 *16 Banana Boat Song (Day-O).flac
242308e62b93d9147ad085adc13ccb66 *17 Man Smart (Woman Smarter).flac
299df71dd86d46595014496ddd09ee62 *18 Drums.flac
558c66e2b94e616d3bc2f6d46b2f9bc1 *19 Space.flac
4a227af79e4d7ee221e1d9b72d8ee323 *20 Knockin' On Heaven's Door.flac
f65055bcce52210d41f4a12042f6cd6f *21 Good Lovin'.flac
5f8ce9ffb92be349c10761001f88d48c *22 Encore Break.flac
4b2c7a9600278310f20a32c6e24aa3de *23 Johnny B Goode.flac
ffp
01 Tuning.flac:3acba62b5f3bc999b7c0be7738db6f37
02 Feel Like A Stranger.flac:9d58b9c126451652d631e4f74aca3e92
03 Franklin's Tower.flac:083577ac9b937f846937583af0ac00c5
04 New Minglewood Blues.flac:333804bbc85c5159e3fee79ccee0aec0
05 Row Jimmy.flac:3f61f40994259cef8a9fc0519f7203ef
06 Mama Tried.flac:36e44736f099b9788e5f14dfc2810f73
07 Big River.flac:0b459c1f05326fb4b2ee85d63091cff8
08 Far From Me.flac:f7878b994fd59a79ba217f7bdb33a74d
09 Stagger Lee.flac:33ebd90afc7674978ea31be5fb5897aa
10 Desolation Row.flac:20d0b6feb9585fb55f562ad63323d50f
11 Don't Ease Me In.flac:6be693294098fb05a4c9284dfe58d1e4
12 Tuning.flac:8ed87cbbe7a7a384df26952d547597f2
13 Shakedown Street.flac:4122b463c4d72cff3ab9c8529a191c77
14 Samson And Delilah.flac:591b7212aab975ae9cd80585ca73f7cd
15 Iko Iko.flac:479135663407d35f48a93d60344445b5
16 Banana Boat Song (Day-O).flac:a447bfe4d7005ffcbbbbd0cfa00bab13
17 Man Smart (Woman Smarter).flac:00fd71e2166011ebf053e78f40bb2d7d
18 Drums.flac:84df77ce031e0686c454ae09421be0b3
19 Space.flac:d9e52da1287bf22a32d7d6ce02b8d60c
20 Knockin' On Heaven's Door.flac:90bc785218b2733193bfa8e1c3afa140
21 Good Lovin'.flac:d50c5a2595526e98e42fca5d14b44ca1
22 Encore Break.flac:fbd039fa2923bafd6216d0389814b08d
23 Johnny B Goode.flac:c4ac82814c9827960b0a0675fd37f026

Comments
Add Comment
Other Sources (comments)
AUD> Beyer Dynamic M88's>... (0) unknown AUD> ?> CDR> EAC>... (3) flac16; Source: 2... (0) flac24; Source:... (0) flac16; Recording... (0) flac24; Recording... (0) flac16; Source Info:... (0)
Date User Comment