Browse Collections Artists Sources   Search Dates

Add Show    List Management    Help


Grateful Dead 05/10/87
Laguna Seca Recreation Area, Monterey, CA
Comments Add Comment    Source Collectors    Add to Collection    Add to Want List    History
Source # 142133 Other Sources
Entered by Matt Vernon
Checksums ffp , flac-md5
Disc Counts 0 / 0
Media Size Compressed: 831.68 MB (872083456 bytes)
Date Circulated
Date Added
06/04/2018
06/04/2018
Source Summary flac16; Recording Info: UltraMatrix SBD > Beta HiFi Master (Sony Betamax/TDK E-HG L-750); Transfer Info: Beta HiFi Master (Sony SL-HF66) > Tascam DA-3000 (DSF 1-bit/5.6MHz) > dBpoweramp > Samplitude Pro X3 Suite > FLAC/24; All Transfers and Mastering By Charlie Miller 
  Archive
Source Information - Download Text | Download Zip
Grateful Dead - May 10, 1987
Laguna Seca Raceway - Monterey, CA

Recording Info:
UltraMatrix SBD > Beta HiFi Master (Sony Betamax/TDK E-HG L-750)

Transfer Info:
Beta HiFi Master (Sony SL-HF66) > Tascam DA-3000 (DSF 1-bit/5.6MHz) >
dBpoweramp > Samplitude Pro X3 Suite > FLAC/24
(1 DVD FLAC)

All Transfers and Mastering By Charlie Miller
[email protected]
May 31, 2018

Notes:
-- This file set is 16 bit 44.1

Set 1:
01 - Tuning
02 - Mississippi Half-Step Uptown Toodeloo >
03 - Feel Like A Stranger
04 - West L.A. Fadeaway
05 - New Minglewood Blues
06 - Row Jimmy
07 - Box Of Rain >
08 - Desolation Row >
09 - Don't Ease Me In

Set 2:
10 - Tuning
11 - Hell In A Bucket >
12 - Scarlet Begonias >
13 - Fire On The Mountain >
14 - Man Smart (Woman Smarter) >
15 - Drums >
16 - Space >
17 - China Doll >
18 - Playing In The Band >
19 - Throwing Stones >
20 - Turn On Your Lovelight

Encore:
21 - Encore Break
22 - Not Fade Away >
23 - Black Muddy River


SHNTOOL OUTPUT:
    length     expanded size    cdr  WAVE problems  fmt   ratio  filename
     1:19.17       13975628 B   ---   --   ---xx   flac  0.3669  01 Tuning.flac
     7:10.34       75932012 B   ---   --   ---xx   flac  0.5555  02 Mississippi Half-Step Uptown Toodeloo.flac
     9:30.33      100625660 B   ---   --   ---xx   flac  0.5359  03 Feel Like A Stranger.flac
     8:57.30       94797404 B   ---   --   ---xx   flac  0.5187  04 West LA Fadeaway.flac
     9:04.19       96006332 B   ---   --   ---xx   flac  0.5347  05 New Minglewood Blues.flac
    10:28.31      110852156 B   ---   --   ---xx   flac  0.4938  06 Row Jimmy.flac
     5:30.58       58348460 B   ---   --   ---xx   flac  0.5537  07 Box Of Rain.flac
     9:03.13       95815820 B   ---   --   ---xx   flac  0.5561  08 Desolation Row.flac
     3:45.69       39852332 B   ---   --   ---xx   flac  0.5774  09 Don't Ease Me In.flac
     1:18.66       13914476 B   ---   --   ---xx   flac  0.3686  10 Tuning.flac
     6:03.32       64108508 B   ---   --   ---xx   flac  0.5870  11 Hell In A Bucket.flac
     8:56.15       94585724 B   ---   --   ---xx   flac  0.5496  12 Scarlet Begonias.flac
    10:29.51      111075596 B   ---   --   ---xx   flac  0.5406  13 Fire On The Mountain.flac
     7:32.61       79876316 B   ---   --   ---xx   flac  0.5373  14 Man Smart (Woman Smarter).flac
     7:25.07       78514508 B   ---   --   ---xx   flac  0.4552  15 Drums.flac
     7:54.09       83634812 B   ---   --   ---xx   flac  0.4698  16 Space.flac
     5:45.13       60888620 B   ---   --   ---xx   flac  0.5028  17 China Doll.flac
     3:45.32       39765308 B   ---   --   ---xx   flac  0.5377  18 Playing In The Band.flac
     8:53.37       94108268 B   ---   --   ---xx   flac  0.5447  19 Throwing Stones.flac
     5:33.58       58877660 B   ---   --   ---xx   flac  0.5673  20 Turn On Your Lovelight.flac
     3:30.23       37098140 B   ---   --   ---xx   flac  0.4468  21 Encore Break.flac
     7:13.60       76522364 B   ---   --   ---xx   flac  0.5002  22 Not Fade Away.flac
     8:04.35       85459964 B   ---   --   ---xx   flac  0.4995  23 Black Muddy River.flac
   157:16.53     1664636068 B                            0.5239  (23 files)



Show Checksums
ffp
01 Tuning.flac:1a660b9b1427b1d6594f8a54ba06468e
02 Mississippi Half-Step Uptown Toodeloo.flac:0a7d1d16b1136f8ccef3754fd0a102a6
03 Feel Like A Stranger.flac:86a198ff7a9f7d666a009d1185fc5de8
04 West LA Fadeaway.flac:d18d3e295bf9dafd0e0e978e7bf14761
05 New Minglewood Blues.flac:8168d0a49737386dc2345c2a3b2007d1
06 Row Jimmy.flac:b89cc24c3edb34571d4a6f49183d5243
07 Box Of Rain.flac:3d87f0c284d78dcaf2b2d9d22468e02f
08 Desolation Row.flac:94ac6f4fcd4ba4f706c0b7befc81ff20
09 Don't Ease Me In.flac:5573ff5ebb3870c992266e4ac2202c92
10 Tuning.flac:73ad0203f8251f6f1fec142c2324a6fa
11 Hell In A Bucket.flac:344044082cb372bd26c0cf72461cb261
12 Scarlet Begonias.flac:a2bc3e3d968b7bdaf51a15482692690c
13 Fire On The Mountain.flac:ebeb0e76bd351aff09848902b15eb0e8
14 Man Smart (Woman Smarter).flac:ae4f65ca4b99680a61a123a10cae08ea
15 Drums.flac:3c2cfec059090ce5c61358ca40ef8e2c
16 Space.flac:6f80ffb2b233e3e6c52d213346268fee
17 China Doll.flac:92bca5444f437ba6c0ccbac352e967fd
18 Playing In The Band.flac:76f568a77bd559f77b322053961733b9
19 Throwing Stones.flac:6df1b5d3406e4a4292106fb91c0540ed
20 Turn On Your Lovelight.flac:695ba250d7bb949f9ddfa7678d14b7e6
21 Encore Break.flac:aa6df0a8e8e3a75c9699deca3dca35c1
22 Not Fade Away.flac:b82ac536df6f69e18f9f54886ec64cf0
23 Black Muddy River.flac:466be015df6119794ec5674aca28ef12
flac-md5
9c3852d6cacf6f75cf8af9d810b82b26 *01 Tuning.flac
82d0ac918f1dc65f17c73fb8b06fe825 *02 Mississippi Half-Step Uptown Toodeloo.flac
40537e946da0f73b30384f484a2136b2 *03 Feel Like A Stranger.flac
688e5d069b5c7a3c315805b3d15e8539 *04 West LA Fadeaway.flac
e8759000329f00cb008bfb009dae6fb5 *05 New Minglewood Blues.flac
ca17a21a51fb52736ab22d76cfb7688a *06 Row Jimmy.flac
f7ba6fc57a17704136b19bb1b5efd61f *07 Box Of Rain.flac
b6e03955db24bccf7d2efb631b00e718 *08 Desolation Row.flac
98246b10062744d6f99b9458d4313a02 *09 Don't Ease Me In.flac
9d05a9bc80287a0f12b94f8f15d8d41f *10 Tuning.flac
dcb4b609f263b7e305cc53ee350d23fe *11 Hell In A Bucket.flac
27d8fbb9d0f1872b5b6bfe978d21cf6e *12 Scarlet Begonias.flac
9372b0d19e41c5ecb486cf7e033d4e4c *13 Fire On The Mountain.flac
06284b4116b6a0e6a8a12ca8222ea930 *14 Man Smart (Woman Smarter).flac
dc03dbf051497cf3bc9e6342f4419e6c *15 Drums.flac
0420a834d05eda22a6d5c42600c4c9c2 *16 Space.flac
5992dc49ecb63e0bff56a1c87306ed22 *17 China Doll.flac
9a65bf7b6e1496605ee63097209f5eab *18 Playing In The Band.flac
93f73f091932619feb6d40d25ab3047b *19 Throwing Stones.flac
7dc60c1483e4d57dd67f4316ca9ca9cb *20 Turn On Your Lovelight.flac
b2725270159627e7d5e17825b3d703bb *21 Encore Break.flac
d084814de6773676607c4d6b3a21fbca *22 Not Fade Away.flac
ef74f179a5b948a7eecfa619502b2570 *23 Black Muddy River.flac

Comments
Add Comment
Other Sources (comments)
DSBD> PCM> DAT> zefiro2>... (15) flac16; Recording... (0) flac16; Hat-Mounted... (0) flac16; PCM... (0) flac24; Recording... (0) flac16; Recording... (0)
Date User Comment