Browse Collections Artists Sources   Search Dates

Add Show    List Management    Help


Grateful Dead 04/19/87
Irvine Meadows, Irvine, CA
Comments Add Comment    Source Collectors    Add to Collection    Add to Want List    History
Source # 142134 Other Sources
Entered by Matt Vernon
Checksums ffp , flac-md5
Disc Counts 0 / 0
Media Size Compressed: 867.01 MB (909123584 bytes)
Date Circulated
Date Added
06/04/2018
06/04/2018
Source Summary flac16; Recording Info: UltraMatrix SBD > Cassette Master (TDK MA-R90); Transfer Info: Cassette Master (Nakamichi CR-7A) > Tascam DA-3000 (DSF 1-bit/5.6 MHz) > KORG AudioGate 4 > Adobe Audition CC2015 > Samplitude Pro X3 Suite > FLAC/24; All Transfers and Mastering By Charlie Miller 
  Archive
Source Information - Download Text | Download Zip
Grateful Dead - April 19, 1987
Irvine Meadows - Laguna Hills, CA

Recording Info:
UltraMatrix SBD > Cassette Master (TDK MA-R90)

Transfer Info:
Cassette Master (Nakamichi CR-7A) > Tascam DA-3000 (DSF 1-bit/5.6 MHz) >
KORG AudioGate 4 > Adobe Audition CC2015 > Samplitude Pro X3 Suite > FLAC/24
(1 DVD FLAC)

All Transfers and Mastering By Charlie Miller
[email protected]
May 31, 2018

Notes:
-- This is a different mix than other circulating soundboards
-- Two sets of masters were used to make this show complete
-- This file set is 16 bit @ 44.1

Set 1:
01 - Tuning
02 - Mississippi Half-Step Uptown Toodeloo >
03 - Franklin's Tower
04 - New Minglewood Blues
05 - Ramble On Rose
06 - Tons Of Steel
07 - Box Of Rain
08 - Cassidy
09 - Alabama Getaway >
10 - Promised Land
11 - Bill Graham Announcement

Set 2:
12 - Tuning
13 - China Cat Sunflower >
14 - I Know You Rider >
15 - Man Smart (Woman Smarter) >
16 - Black Muddy River >
17 - I Need A Miracle >
18 - Cumberland Blues >
19 - Drums >
20 - Space >
21 - The Other One >
22 - Wharf Rat >
23 - Not Fade Away

Encore:
24 - Not Fade Away >
25 - Brokedown Palace


SHNTOOL OUTPUT:
    length     expanded size    cdr  WAVE problems  fmt   ratio  filename
     2:21.69       25034732 B   ---   --   ---xx   flac  0.3819  01 Tuning.flac
     7:13.65       76534124 B   ---   --   ---xx   flac  0.5860  02 Mississippi Half-Step Uptown Toodeloo.flac
     7:56.14       83999372 B   ---   --   ---xx   flac  0.5590  03 Franklin's Tower.flac
    10:10.15      107639324 B   ---   --   ---xx   flac  0.5508  04 New Minglewood Blues.flac
     8:56.49       94665692 B   ---   --   ---xx   flac  0.5589  05 Ramble On Rose.flac
     5:09.64       54658172 B   ---   --   ---xx   flac  0.6148  06 Tons Of Steel.flac
     5:42.41       60425276 B   ---   --   ---xx   flac  0.5699  07 Box Of Rain.flac
     8:46.14       92819372 B   ---   --   ---xx   flac  0.5543  08 Cassidy.flac
     4:42.21       49794236 B   ---   --   ---xx   flac  0.5978  09 Alabama Getaway.flac
     4:36.11       48712316 B   ---   --   ---xx   flac  0.5959  10 Promised Land.flac
     0:45.29        8006252 B   ---   --   ---xx   flac  0.4877  11 Bill Graham Announcement.flac
     2:04.00       21873644 B   ---   --   ---xx   flac  0.4002  12 Tuning.flac
     5:47.39       61302572 B   ---   --   ---xx   flac  0.5866  13 China Cat Sunflower.flac
     5:56.45       62904284 B   ---   --   ---xx   flac  0.5825  14 I Know You Rider.flac
     8:39.51       91671596 B   ---   --   ---xx   flac  0.5732  15 Man Smart (Woman Smarter).flac
     6:51.28       72566300 B   ---   --   ---xx   flac  0.5475  16 Black Muddy River.flac
     4:28.58       47411660 B   ---   --   ---xx   flac  0.5861  17 I Need A Miracle.flac
     4:58.43       52668380 B   ---   --   ---xx   flac  0.5946  18 Cumberland Blues.flac
     9:41.22      102540188 B   ---   --   ---xx   flac  0.5122  19 Drums.flac
     5:10.14       54716972 B   ---   --   ---xx   flac  0.4629  20 Space.flac
     8:45.51       92729996 B   ---   --   ---xx   flac  0.5543  21 The Other One.flac
     9:30.72      100717388 B   ---   --   ---xx   flac  0.5429  22 Wharf Rat.flac
     9:10.33       97097660 B   ---   --   ---xx   flac  0.5448  23 Not Fade Away.flac
     0:45.22        7989788 B   ---   --   ---xx   flac  0.5256  24 Not Fade Away.flac
     6:48.31       72044156 B   ---   --   ---xx   flac  0.5489  25 Brokedown Palace.flac
   155:00.01     1640523452 B                            0.5541  (25 files)



Show Checksums
ffp
01 Tuning.flac:7a71add6fc1d60007521da4f76d2b474
02 Mississippi Half-Step Uptown Toodeloo.flac:b4564bbbfb862321db67dd2f0072e700
03 Franklin's Tower.flac:21cffb461c10ed75ae8934e5d9d97bb7
04 New Minglewood Blues.flac:128c7d544aeb8b4c604f72a50c975398
05 Ramble On Rose.flac:0a62c08ed1fdf451a54e7f2f401a9d2e
06 Tons Of Steel.flac:771199cb8b8693239899b4ef3fa81ab5
07 Box Of Rain.flac:58fc01dbec4fc67865976c9592846164
08 Cassidy.flac:8f682523d435276bc9a8b9dd7c7dae2b
09 Alabama Getaway.flac:c2ed2ad112351ae74ba738e8a37d3933
10 Promised Land.flac:f2ab01d1b64861eeeebcdec7b2e64d08
11 Bill Graham Announcement.flac:2e93a90b43af57325dc139e4a973a164
12 Tuning.flac:b8040ab54298a3e6edad838186690279
13 China Cat Sunflower.flac:706bfa4f0e8d8621d517b4ff96b090ac
14 I Know You Rider.flac:a5ceabf14e4aa3f6650a37239fc89f45
15 Man Smart (Woman Smarter).flac:278afd8e45c0f8a7eb09147eb2f49cc6
16 Black Muddy River.flac:826321575f30a5140e59bb1711dd1e92
17 I Need A Miracle.flac:1381155a4da3c707d6cc0c546549d423
18 Cumberland Blues.flac:19a428cfc7accf4307de2433a9bd34f3
19 Drums.flac:830b3e490820702774c6b4a6713bef36
20 Space.flac:5b34f236ac26082aef6ff50c1739863c
21 The Other One.flac:caabc3946a50260e1379b6ed108131ea
22 Wharf Rat.flac:476a510606988cdbcc18afa12e9133b3
23 Not Fade Away.flac:230a08f9a7af2b9e6d8d4e789ef05595
24 Not Fade Away.flac:d4a30f97c0bbaf98be2f81b7eb8c58f3
25 Brokedown Palace.flac:c6bfe9c697ca7933a7384f976b923190
flac-md5
c9643b6a2527d9fc752551ad910124e5 *01 Tuning.flac
5a27f9961a516b3c8cee04925887279a *02 Mississippi Half-Step Uptown Toodeloo.flac
2c15c6e3df355859c202df1b01935cdf *03 Franklin's Tower.flac
f30ce9ad48d9b3e8a9355f33a7d17afe *04 New Minglewood Blues.flac
e2762e3afb33052cfbb7d38fa317737a *05 Ramble On Rose.flac
bab83a7e654ccb21381b965249d879c6 *06 Tons Of Steel.flac
77efeeff965a2472d8d48aec6c34eaa4 *07 Box Of Rain.flac
4064a096e19e8bf69454902e6fe6beca *08 Cassidy.flac
0b0c95019eef29dc1c7fab621aeef7f8 *09 Alabama Getaway.flac
254561e885a1f4fda38eb4a96389168a *10 Promised Land.flac
8b63e0db91b2a90a5d01e71635583781 *11 Bill Graham Announcement.flac
fd41a6bcb5b1b32adfb10b5e8a308879 *12 Tuning.flac
a981ff6d3599153264fe0aaeed1e6ae8 *13 China Cat Sunflower.flac
1bd74a9b74b76d901b43df1cc0f4f20a *14 I Know You Rider.flac
41c5ecb477cf619ddb1f5cb1912bf769 *15 Man Smart (Woman Smarter).flac
5f80f767f3017cf4055dedf22ca543b4 *16 Black Muddy River.flac
93b7e6684b20c51b02f73a9b9fdb38bd *17 I Need A Miracle.flac
d66ca2190a63431fc2b824a94252106a *18 Cumberland Blues.flac
0a37c7570746a237f12c22ef19882ede *19 Drums.flac
5fa2bb96899507afa3bbf138321d1fb4 *20 Space.flac
e6fd5278d4b24bd5724fa0e522fc96b4 *21 The Other One.flac
fd00b8068f436617267eed4a4d39bafd *22 Wharf Rat.flac
e6c9d10ce986479ad68859a2bb679bfb *23 Not Fade Away.flac
f2612f527789ac682770742e65396b38 *24 Not Fade Away.flac
ae73010cdc0e525e1c15db82572a8b2a *25 Brokedown Palace.flac

Comments
Add Comment
Other Sources (comments)
SBD > Cass Master > PCM >... (1) Healy Ultramix SBD/AUD> CM>... (0) Master Soundboard Casette >... (0) flac16; source:... (1) flac16; Recording... (0) flac16; Audience... (0) flac16; Digital... (0) flac24; Recording... (0)
Date User Comment