Browse Collections Artists Sources   Search Dates

Add Show    List Management    Help


Grateful Dead 08/22/87
Calaveras County Fairgrounds, Angels Camp, CA
Comments Add Comment    Source Collectors    Add to Collection    Add to Want List    History
Source # 142138 Other Sources
Entered by Matt Vernon
Checksums ffp , flac-md5
Disc Counts 0 / 0
Media Size
Date Circulated
Date Added
06/05/2018
06/05/2018
Source Summary flac24; Recording Info: UltraMatrix SBD > Beta HiFi Master (Sony Betamax/TDK HS); Transfer Info: Beta HiFi Master (Sony SL-HF66) > Tascam DA-3000 (DSF 1-bit/5.6 MHz) > dBpoweramp > Samplitude Pro X3 Suite > FLAC/24; All Transfers and Mastering by Charlie Miller 
  Archive
Source Information - Download Text | Download Zip
Grateful Dead - August 22, 1987
Calavaras County Fairgrounds - Angel's Camp, CA

Recording Info:
UltraMatrix SBD > Beta HiFi Master (Sony Betamax/TDK HS)

Transfer Info:
Beta HiFi Master (Sony SL-HF66) > Tascam DA-3000 (DSF 1-bit/5.6 MHz) >
dBpoweramp > Samplitude Pro X3 Suite > FLAC/24
(1 DVD FLAC)

All Transfers and Mastering by Charlie Miller
[email protected]
June 4, 2018

Notes:
-- Recorded by Don Pearson
-- Schoolgirl and Midnight Hour with Carlos Santana

Set 1:
01 - Tuning
02 - Touch Of Grey >
03 - Little Red Rooster
04 - Tons Of Steel
05 - Friend Of The Devil
06 - My Brother Esau
07 - Tennessee Jed
08 - When I Paint My Masterpiece >
09 - Bird Song
10 - Good Morning Little Schoolgirl
11 - In The Midnight Hour

Set 2:
12 - Tuning
13 - Hell In A Bucket
14 - When Push Comes To Shove
15 - Estimated Prophet >
16 - Eyes Of The World >
17 - Drums >
18 - Space >
19 - The Other One >
20 - Goin' Down The Road Feeling Bad >
21 - Throwing Stones >
22 - Turn On Your Lovelight

Encore:
23 - Encore Break
24 - U.S. Blues


SHNTOOL OUTPUT:
    length     expanded size    cdr  WAVE problems  fmt   ratio  filename
     0:59.719      34398020 B   cxx   --   ---xx   flac  0.5452  01 Tuning.flac
     6:06.827     211292582 B   cxx   --   ---xx   flac  0.6262  02 Touch Of Grey.flac
    10:04.549     348220370 B   cxx   --   ---xx   flac  0.6003  03 Little Red Rooster.flac
     5:21.915     185422922 B   cxx   --   ---xx   flac  0.6404  04 Tons Of Steel.flac
    10:36.047     366363074 B   cxx   --   ---xx   flac  0.6017  05 Friend Of The Devil.flac
     5:23.589     186387062 B   cxx   --   ---xx   flac  0.6155  06 My Brother Esau.flac
     8:29.531     293489918 B   cxx   --   ---xx   flac  0.6200  07 Tennessee Jed.flac
     5:04.794     175561316 B   cxx   --   ---xx   flac  0.6311  08 When I Paint My Masterpiece.flac
    10:20.249     357263576 B   cxx   --   ---xx   flac  0.6171  09 Bird Song.flac
     7:28.320     258232232 B   cxx   --   ---xx   flac  0.6104  10 Good Morning Little Schoolgirl.flac
     6:18.391     217953104 B   cxx   --   ---xx   flac  0.6310  11 In The Midnight Hour.flac
     1:45.951      61027928 B   cxx   --   ---xx   flac  0.5594  12 Tuning.flac
     7:04.078     244269170 B   cxx   --   ---xx   flac  0.6423  13 Hell In A Bucket.flac
     5:48.130     200522762 B   cxx   --   ---xx   flac  0.6340  14 When Push Comes To Shove.flac
    11:00.837     380642054 B   cxx   --   ---xx   flac  0.6414  15 Estimated Prophet.flac
     9:18.477     321682940 B   cxx   --   ---xx   flac  0.6443  16 Eyes Of The World.flac
     5:53.078     203373242 B   cxx   --   ---xx   flac  0.5981  17 Drums.flac
     3:35.356     124045352 B   cxx   --   ---xx   flac  0.5725  18 Space.flac
     6:29.624     224423678 B   cxx   --   ---xx   flac  0.6135  19 The Other One.flac
     6:20.259     219029492 B   cxx   --   ---xx   flac  0.6335  20 Goin' Down The Road Feeling Bad.flac
     9:01.048     311643578 B   cxx   --   ---xx   flac  0.6466  21 Throwing Stones.flac
     5:34.905     192905294 B   cxx   --   ---xx   flac  0.6480  22 Turn On Your Lovelight.flac
     2:53.513      99943652 B   cxx   --   ---xx   flac  0.5956  23 Encore Break.flac
     6:22.130     220106672 B   cxx   --   ---xx   flac  0.6445  24 US Blues.flac
   157:21.318    5438199990 B                            0.6232  (24 files)


Show Checksums
ffp
01 Tuning.flac:dd43984a0021067e98a14e5679a45498
02 Touch Of Grey.flac:58ea536519eeb55a5dcf5c5f40b82258
03 Little Red Rooster.flac:3bc1d6cac753c5390a495ef49758c826
04 Tons Of Steel.flac:76fbc0d3505b954e8513836ce31b3694
05 Friend Of The Devil.flac:37a950348f5ebefb545d90ba273d1cbe
06 My Brother Esau.flac:2285a1f12928932045e49af03b26b7ed
07 Tennessee Jed.flac:55c802667d50a5012c604fc88758a5fe
08 When I Paint My Masterpiece.flac:c754e3812196acaae51a6d1e67c3ae8c
09 Bird Song.flac:06b21041975c6161df685679de5575bb
10 Good Morning Little Schoolgirl.flac:29b6e30844284bf5ca6eacaf97152b13
11 In The Midnight Hour.flac:279801da7d07158ab7af18fcb894c089
12 Tuning.flac:ccba71d7972b2fd68381922d2dd95f91
13 Hell In A Bucket.flac:bfd5b17507f7948b7e864e710ee63fbf
14 When Push Comes To Shove.flac:cdd4d2ef9d7413e4f1215588adc47a29
15 Estimated Prophet.flac:2c8b16c09617574b41042b537519568e
16 Eyes Of The World.flac:6ed5b7051eefe22e0c84e4c00f9d6046
17 Drums.flac:819f7dceeaa0481ceecb03632dfd7b79
18 Space.flac:a777d1ea0defd3f2f4a0d5fbd0c7a21a
19 The Other One.flac:2b53380c91f3c06b176518a5d8aea192
20 Goin' Down The Road Feeling Bad.flac:be67f8558672ca915eaccf3a6751262b
21 Throwing Stones.flac:b4818f0e8b1b44f88052027a5047f61b
22 Turn On Your Lovelight.flac:14de8c287c2add9e3c1f422a85c0eaf3
23 Encore Break.flac:f95f92bf1b8aa203a330928c8877d544
24 US Blues.flac:9fdbdae12e612d488abd54109aaa9e87
flac-md5
ef3d2d0d2f5d5d9c0c5ecc9ba03bedaf *01 Tuning.flac
a63678e50f4622e07e72d72c8052d263 *02 Touch Of Grey.flac
b8900b5f1b78b1a0dd0d464fe80ecb02 *03 Little Red Rooster.flac
38938b21a18e8d849354d261e9384046 *04 Tons Of Steel.flac
185af704cb08aafd4bd3bf53680cbddb *05 Friend Of The Devil.flac
ee0da1db5f7e6521a2afab6e3bbfbdb5 *06 My Brother Esau.flac
c79fe7ab893210a3b0f050d045684cf2 *07 Tennessee Jed.flac
67f38caff1eb5685442a0ce19d02eb8f *08 When I Paint My Masterpiece.flac
e7905d05a0238bf244dc9f6cef75a37b *09 Bird Song.flac
48083cd1fac45ed6698bed8e9bc53ddd *10 Good Morning Little Schoolgirl.flac
a96134961babcb1ba045bba8f1324297 *11 In The Midnight Hour.flac
e6b0a908c4756ad4540339c2ee0db180 *12 Tuning.flac
23574ff612165767667b2ba54e6ef91a *13 Hell In A Bucket.flac
1d10b5c215adac15bf636331851d9957 *14 When Push Comes To Shove.flac
d2ee35f2eecefadaaacab2a17c41ab97 *15 Estimated Prophet.flac
c7748725bf94a1f8f7eac2d11ba5abd2 *16 Eyes Of The World.flac
a3048327500123b4c6dff7ed8da5cfa0 *17 Drums.flac
dbb30a94fad195bd48bda56c0b18cc51 *18 Space.flac
569c05107a591d735af79cd663b1b345 *19 The Other One.flac
fd977baff2319543f8296e2f9819eb1a *20 Goin' Down The Road Feeling Bad.flac
cdf94d6b5976d913c01e79b3fca3fd8f *21 Throwing Stones.flac
9a2215aacdf1380f335a07306c116270 *22 Turn On Your Lovelight.flac
7f23d91c508018dfcefedde3f878cb9d *23 Encore Break.flac
391a34b2c611d6d9887b25c4ba263698 *24 US Blues.flac

Comments
Add Comment
Other Sources (comments)
updated source: SBD> Master... (4) updated source: SBD> Master... (5) flac16; Recording... (0) flac16; Recording... (0) flac16; Recording... (0)
Date User Comment