Browse Collections Artists Sources   Search Dates

Add Show    List Management    Help


Grateful Dead 08/22/87
Calaveras County Fairgrounds, Angels Camp, CA
Comments Add Comment    Source Collectors    Add to Collection    Add to Want List    History
Source # 142139 Other Sources
Entered by Matt Vernon
Checksums ffp , flac-md5
Disc Counts 0 / 0
Media Size
Date Circulated
Date Added
06/05/2018
06/05/2018
Source Summary flac16; Recording Info: UltraMatrix SBD > PCM Master (Sony Betamax/TDK HS); Transfer Info: PCM Master (Sony SL-HF66) > Sony PCM-601ESD > Behringer Ultramatch Pro > Tascam DA-3000 (16-bit/44.1k) > Samplitude Pro X3 Suite > FLAC/16; All Transfers and Mastering by Charlie Miller 
  Archive
Source Information - Download Text | Download Zip
Grateful Dead - August 22, 1987
Calavaras County Fairgrounds - Angel's Camp, CA

Recording Info:
UltraMatrix SBD > PCM Master (Sony Betamax/TDK HS)

Transfer Info:
PCM Master (Sony SL-HF66) > Sony PCM-601ESD > Behringer Ultramatch Pro >
Tascam DA-3000 (16-bit/44.1k) > Samplitude Pro X3 Suite > FLAC/16
(3 Discs Audio / 1 DVD FLAC)

All Transfers and Mastering by Charlie Miller
[email protected]
June 4, 2018

Notes:
-- Recorded by Don Pearson
-- Schoolgirl and Midnight Hour with Carlos Santana

Set 1:
01 - Tuning
02 - Touch Of Grey >
03 - Little Red Rooster
04 - Tons Of Steel
05 - Friend Of The Devil
06 - My Brother Esau
07 - Tennessee Jed
08 - When I Paint My Masterpiece >
09 - Bird Song
10 - Good Morning Little Schoolgirl
11 - In The Midnight Hour

Set 2:
12 - Tuning
13 - Hell In A Bucket
14 - When Push Comes To Shove
15 - Estimated Prophet >
16 - Eyes Of The World >
17 - Drums >
18 - Space >
19 - The Other One >
20 - Goin' Down The Road Feeling Bad >
21 - Throwing Stones >
22 - Turn On Your Lovelight

Encore:
23 - Encore Break
24 - U.S. Blues


SHNTOOL OUTPUT:
    length     expanded size    cdr  WAVE problems  fmt   ratio  filename
     0:59.61       10551116 B   ---   --   ---xx   flac  0.4520  01 Tuning.flac
     6:06.59       64701212 B   ---   --   ---xx   flac  0.6176  02 Touch Of Grey.flac
    10:04.37      106632668 B   ---   --   ---xx   flac  0.5466  03 Little Red Rooster.flac
     5:21.68       56784380 B   ---   --   ---xx   flac  0.6015  04 Tons Of Steel.flac
    10:36.09      112211612 B   ---   --   ---xx   flac  0.5418  05 Friend Of The Devil.flac
     5:23.33       57054860 B   ---   --   ---xx   flac  0.5707  06 My Brother Esau.flac
     8:29.29       89855852 B   ---   --   ---xx   flac  0.5747  07 Tennessee Jed.flac
     5:05.12       53830268 B   ---   --   ---xx   flac  0.5964  08 When I Paint My Masterpiece.flac
    10:20.01      109370396 B   ---   --   ---xx   flac  0.5716  09 Bird Song.flac
     7:28.31       79100156 B   ---   --   ---xx   flac  0.5611  10 Good Morning Little Schoolgirl.flac
     6:19.54       66982652 B   ---   --   ---xx   flac  0.5878  11 In The Midnight Hour.flac
     1:46.37       18785468 B   ---   --   ---xx   flac  0.4169  12 Tuning.flac
     6:53.28       72919100 B   ---   --   ---xx   flac  0.5926  13 Hell In A Bucket.flac
     5:58.59       63290012 B   ---   --   ---xx   flac  0.5554  14 When Push Comes To Shove.flac
    10:58.54      116198252 B   ---   --   ---xx   flac  0.5795  15 Estimated Prophet.flac
     9:19.73       98779340 B   ---   --   ---xx   flac  0.5871  16 Eyes Of The World.flac
     5:51.67       62074028 B   ---   --   ---xx   flac  0.4543  17 Drums.flac
     3:37.12       38307068 B   ---   --   ---xx   flac  0.4014  18 Space.flac
     6:18.73       66850940 B   ---   --   ---xx   flac  0.4953  19 The Other One.flac
     6:30.61       68939516 B   ---   --   ---xx   flac  0.5633  20 Goin' Down The Road Feeling Bad.flac
     9:01.10       95455964 B   ---   --   ---xx   flac  0.5820  21 Throwing Stones.flac
     5:35.74       59268092 B   ---   --   ---xx   flac  0.5820  22 Turn On Your Lovelight.flac
     2:52.28       30406700 B   ---   --   ---xx   flac  0.4882  23 Encore Break.flac
     6:19.68       67015580 B   ---   --   ---xx   flac  0.5902  24 US Blues.flac
   157:20.63     1665365232 B                            0.5597  (24 files)


Show Checksums
ffp
01 Tuning.flac:6465c42d3ee2b78af4e5585ec281cfc2
02 Touch Of Grey.flac:6927d5636757004f82166f2bdb96f3fa
03 Little Red Rooster.flac:4c47af849b775f50844f90c68c2d46f7
04 Tons Of Steel.flac:5266704e0dca54bd2db08d77a24a1514
05 Friend Of The Devil.flac:8efe67976b803a18abc0feb0b0942693
06 My Brother Esau.flac:571d8c9260080450742a440c5659f4d3
07 Tennessee Jed.flac:69eba9f751fb4da2e4b7378675cfdf04
08 When I Paint My Masterpiece.flac:09c00d3ce2ee7d26707c265051d3ab40
09 Bird Song.flac:4972855651e096ed141a45f10af1deb2
10 Good Morning Little Schoolgirl.flac:0a1eb9bd8fccf2c88b02d3f25104daa1
11 In The Midnight Hour.flac:1a85945897d5c6de9b95acca2062814b
12 Tuning.flac:7933d7f10d2f950bf0771b99183f65b3
13 Hell In A Bucket.flac:a6dcaf2bb732e2e8629463bca90aeea3
14 When Push Comes To Shove.flac:145851040151935a2b7f4c2bda1b128a
15 Estimated Prophet.flac:5ca801164412ff3a12411b1edc088697
16 Eyes Of The World.flac:f906d064cf80c3040a855eef9183268f
17 Drums.flac:dbe072b6e4b3fd9db11fa041c78bbe4e
18 Space.flac:13847320cb90a5588e475b01505c7bb2
19 The Other One.flac:75b2f41e5e5b1e7cecb1b3a1bbfad532
20 Goin' Down The Road Feeling Bad.flac:f655409f98c41f0eabed39d0753ba476
21 Throwing Stones.flac:fe1d878f4d23c6ea03be4991663f0f22
22 Turn On Your Lovelight.flac:799cfe907f7796e2c31836e65d052fb7
23 Encore Break.flac:b8af430de1d1f706fb4ec8d032776504
24 US Blues.flac:3dcad900c71d5898be0ae218b04dface
flac-md5
c1fca2eb0604150963ae1640f9f8e18b *01 Tuning.flac
fee02aa51e1b91f56de6d7d47bfd7e9a *02 Touch Of Grey.flac
db1782d8525100512d5482a50bf99aba *03 Little Red Rooster.flac
db10d80013aa0bb8942518ae12a7fc89 *04 Tons Of Steel.flac
f45ce9e5bbd693188a51533a638b635a *05 Friend Of The Devil.flac
5f359dafe54c88d4ea6b003c22bae5a3 *06 My Brother Esau.flac
ec6277bb4d78243c5da3352641c972d3 *07 Tennessee Jed.flac
d91a8f4767d5da84c55949746f5d4737 *08 When I Paint My Masterpiece.flac
e39a1597fb2dd84949f81aed90a490f6 *09 Bird Song.flac
412d28f50cb310bce469455457ef8ae0 *10 Good Morning Little Schoolgirl.flac
a29870e54e3c9cd288859a123c8df925 *11 In The Midnight Hour.flac
68f6175848e4f7534918df5c1c29ea79 *12 Tuning.flac
c570d8c05488f1ed8254bd13372bbe41 *13 Hell In A Bucket.flac
99bd5c97b9d468bf24fc5966024302fc *14 When Push Comes To Shove.flac
c03704efb7797fb279ee308ae0b2d1dd *15 Estimated Prophet.flac
9c0ef4866422e56799cf1235ee710b97 *16 Eyes Of The World.flac
e60d332f9c42e85aba068957d8a028b2 *17 Drums.flac
d603ced37e08f1fdfbc4bbd63202102f *18 Space.flac
e3beb070e1607b792a4e84838003acc6 *19 The Other One.flac
d438060a569e676f6a6baf7252b6abf2 *20 Goin' Down The Road Feeling Bad.flac
1086df35fb132865ea2e8f4d69afb261 *21 Throwing Stones.flac
ab1196affbd2bfb5b34569d6bfeadb4c *22 Turn On Your Lovelight.flac
1140042c7b9df26a98dfd71c1237f588 *23 Encore Break.flac
e17ef1fca3c1b025a0f2c7ef0414d6f8 *24 US Blues.flac

Comments
Add Comment
Other Sources (comments)
updated source: SBD> Master... (4) updated source: SBD> Master... (5) flac16; Recording... (0) flac24; Recording... (0) flac16; Recording... (0)
Date User Comment