Browse Collections Artists Sources   Search Dates

Add Show    List Management    Help


Grateful Dead 08/22/87
Calaveras County Fairgrounds, Angels Camp, CA
Comments Add Comment    Source Collectors    Add to Collection    Add to Want List    History
Source # 142146 Other Sources
Entered by Matt Vernon
Checksums flac-md5 , ffp
Disc Counts 0 / 0
Media Size Compressed: 896.29 MB (939827200 bytes)
Date Circulated
Date Added
06/07/2018
06/07/2018
Source Summary flac16; Recording Info: UltraMatrix SBD > Beta HiFi Master (Sony Betamax/TDK HS); Transfer Info: Beta HiFi Master (Sony SL-HF66) > Tascam DA-3000 (DSF 1-bit/5.6 MHz) > dBpoweramp > Samplitude Pro X3 Suite > FLAC/24; All Transfers and Mastering by Charlie Miller 
  Archive
Source Information - Download Text | Download Zip
Grateful Dead - August 22, 1987
Calavaras County Fairgrounds - Angel's Camp, CA

Recording Info:
UltraMatrix SBD > Beta HiFi Master (Sony Betamax/TDK HS)

Transfer Info:
Beta HiFi Master (Sony SL-HF66) > Tascam DA-3000 (DSF 1-bit/5.6 MHz) >
dBpoweramp > Samplitude Pro X3 Suite > FLAC/24
(1 DVD FLAC)

All Transfers and Mastering by Charlie Miller
[email protected]
June 4, 2018

Notes:
-- Recorded by Don Pearson
-- Schoolgirl and Midnight Hour with Carlos Santana
-- This file set is 16 bit at 44.1

Set 1:
01 - Tuning
02 - Touch Of Grey >
03 - Little Red Rooster
04 - Tons Of Steel
05 - Friend Of The Devil
06 - My Brother Esau
07 - Tennessee Jed
08 - When I Paint My Masterpiece >
09 - Bird Song
10 - Good Morning Little Schoolgirl
11 - In The Midnight Hour

Set 2:
12 - Tuning
13 - Hell In A Bucket
14 - When Push Comes To Shove
15 - Estimated Prophet >
16 - Eyes Of The World >
17 - Drums >
18 - Space >
19 - The Other One >
20 - Goin' Down The Road Feeling Bad >
21 - Throwing Stones >
22 - Turn On Your Lovelight

Encore:
23 - Encore Break
24 - U.S. Blues


SHNTOOL OUTPUT:
    length     expanded size    cdr  WAVE problems  fmt   ratio  filename
     0:59.53       10532300 B   ---   --   ---xx   flac  0.4055  01 Tuning.flac
     6:06.62       64708268 B   ---   --   ---xx   flac  0.5768  02 Touch Of Grey.flac
    10:04.42      106644428 B   ---   --   ---xx   flac  0.5269  03 Little Red Rooster.flac
     5:21.68       56784380 B   ---   --   ---xx   flac  0.6081  04 Tons Of Steel.flac
    10:36.04      112199852 B   ---   --   ---xx   flac  0.5347  05 Friend Of The Devil.flac
     5:23.44       57080732 B   ---   --   ---xx   flac  0.5630  06 My Brother Esau.flac
     8:29.40       89881724 B   ---   --   ---xx   flac  0.5705  07 Tennessee Jed.flac
     5:04.59       53764412 B   ---   --   ---xx   flac  0.5911  08 When I Paint My Masterpiece.flac
    10:20.19      109412732 B   ---   --   ---xx   flac  0.5666  09 Bird Song.flac
     7:28.24       79083692 B   ---   --   ---xx   flac  0.5503  10 Good Morning Little Schoolgirl.flac
     6:18.29       66747452 B   ---   --   ---xx   flac  0.5945  11 In The Midnight Hour.flac
     1:45.72       18691388 B   ---   --   ---xx   flac  0.4086  12 Tuning.flac
     7:04.05       74805404 B   ---   --   ---xx   flac  0.5966  13 Hell In A Bucket.flac
     5:48.10       61410764 B   ---   --   ---xx   flac  0.5750  14 When Push Comes To Shove.flac
    11:00.63      116572220 B   ---   --   ---xx   flac  0.5928  15 Estimated Prophet.flac
     9:18.36       98515916 B   ---   --   ---xx   flac  0.6009  16 Eyes Of The World.flac
     5:53.06       62283356 B   ---   --   ---xx   flac  0.4898  17 Drums.flac
     3:35.26       37987196 B   ---   --   ---xx   flac  0.4284  18 Space.flac
     6:29.47       68730188 B   ---   --   ---xx   flac  0.5263  19 The Other One.flac
     6:20.20       67079084 B   ---   --   ---xx   flac  0.5774  20 Goin' Down The Road Feeling Bad.flac
     9:01.03       95439500 B   ---   --   ---xx   flac  0.6076  21 Throwing Stones.flac
     5:34.68       59077580 B   ---   --   ---xx   flac  0.6067  22 Turn On Your Lovelight.flac
     2:53.39       30608972 B   ---   --   ---xx   flac  0.4950  23 Encore Break.flac
     6:22.10       67408364 B   ---   --   ---xx   flac  0.6012  24 US Blues.flac
   157:21.24     1665449904 B                            0.5643  (24 files)



Show Checksums
flac-md5
6545dfc55407471cddbbf9c2e17da40c *01 Tuning.flac
169ed631dce3eecdf28bcc3ed2bf737d *02 Touch Of Grey.flac
50db8afe4a433b80a01191ecfcec0061 *03 Little Red Rooster.flac
13471ab157e1b3a55bee546fb233434c *04 Tons Of Steel.flac
75bbc2441e0c5f192c1e488214bd6549 *05 Friend Of The Devil.flac
b995b0513512a41589985e4030c9cd26 *06 My Brother Esau.flac
5d1029c53009321782566136a17d27e8 *07 Tennessee Jed.flac
a6d19c417866c3cc0c4e92078a7cb73d *08 When I Paint My Masterpiece.flac
cfc32d47f432312107fb4e226cc473fc *09 Bird Song.flac
42c85a15b5bdb67b08734027f2e37c6c *10 Good Morning Little Schoolgirl.flac
9d3bfc456715211601c87829b05e2f16 *11 In The Midnight Hour.flac
c299c2bcbf79df115847764a3ee2cc15 *12 Tuning.flac
fbc986ae8d54cbcb80135e379f415816 *13 Hell In A Bucket.flac
642cf9b3e2dae8009c4ef970c0af303c *14 When Push Comes To Shove.flac
bac7b3f7dfdba10847ac3c232e32baef *15 Estimated Prophet.flac
d3a0fa9d6f34ffc82d5001c9060001ce *16 Eyes Of The World.flac
63b39fd8a9037dba7e3cc40b37696177 *17 Drums.flac
18cdc0c8e2287644347804ccfdcb6a36 *18 Space.flac
06ec0c012d64987f0c804213e484f132 *19 The Other One.flac
fb3e2aa4682b31d3fc3705adaf5377a0 *20 Goin' Down The Road Feeling Bad.flac
4ef8f64035cf2067c9a697b0f6b09f4c *21 Throwing Stones.flac
7b524868083f8e7dcb1569be6add7376 *22 Turn On Your Lovelight.flac
c2c56ccd79dc42380ccebcb9a847bd66 *23 Encore Break.flac
c77f904d95bda55db23c85bd102531e9 *24 US Blues.flac
ffp
01 Tuning.flac:721f8b7f99ac0bf5cfef420b0325ec25
02 Touch Of Grey.flac:1205509a3e0f73338adf6ba1741bae43
03 Little Red Rooster.flac:b9c13fcad8b4868efa36af4c9674f658
04 Tons Of Steel.flac:e03ef6320e3e9ccb48e391025016a37d
05 Friend Of The Devil.flac:07a661b4495e8c042cffbcd5645139dc
06 My Brother Esau.flac:94b1c884fbcf4acf4fb13f5ed02daa19
07 Tennessee Jed.flac:2fbde7a4e0d70caec241a2356be631f3
08 When I Paint My Masterpiece.flac:64f5bd4ff34a3fd8afa70aff55d48c1b
09 Bird Song.flac:e3d3b81cc274068dc7c6383788f0263b
10 Good Morning Little Schoolgirl.flac:ad37b05005b1ebfad427fee39889d847
11 In The Midnight Hour.flac:32204f2590c13524193098e157c868a3
12 Tuning.flac:5630ab378f1254a12abeee227b8b576f
13 Hell In A Bucket.flac:44740f63e2ac5a9bbcdc62c798cf10b1
14 When Push Comes To Shove.flac:e6c4e38f9cc6f0a52be90c2ed8e1589c
15 Estimated Prophet.flac:8b66a704d3872cb83439873c8da94384
16 Eyes Of The World.flac:625768eaf8f1fa0318a505a37a24f9d9
17 Drums.flac:c84d45401d8024b77a76eda489f374a1
18 Space.flac:fa443e6ad5216d1d0de9221e9574bdd8
19 The Other One.flac:a8dee80a18a6e6d6cf32356597681085
20 Goin' Down The Road Feeling Bad.flac:3ad45b60587c63e07d56266be87592d8
21 Throwing Stones.flac:d3e9d8ad26ec2910855afd49ec2991dc
22 Turn On Your Lovelight.flac:bc28a83fa4bce0e98017740b615956c0
23 Encore Break.flac:aef34f7013776a64498b3ab18472bbe7
24 US Blues.flac:2eb8ac6e63dbec8dc15e4ab504977bb1

Comments
Add Comment
Other Sources (comments)
updated source: SBD> Master... (4) updated source: SBD> Master... (5) flac16; Recording... (0) flac24; Recording... (0) flac16; Recording... (0)
Date User Comment