Browse Collections Artists Sources   Search Dates

Add Show    List Management    Help


Grateful Dead 07/08/87
Roanoke Civic Center, Roanoke, VA
Comments Add Comment    Source Collectors    Add to Collection    Add to Want List    History
Source # 142149 Other Sources
Entered by Matt Vernon
Checksums ffp , flac-md5
Disc Counts 0 / 0
Media Size
Uncompressed: 955.39 MB (1001797384 bytes)
Date Circulated
Date Added
06/07/2018
06/07/2018
Source Summary flac16; Set 2 Source: (FOB) Schoeps cmc mk4 (ortf) > pcm > dat - Provided by Rich Gastwirt; Transfer: Dat > Sony PCM-R500 > Sound Devices 744T > wav 16/48 - Transferred by Charlie Miller; Lineage: wav > iZotope RX6 Advanced > iZotope Ozone 5 Advanced > CD Wave > TLH > Flac 16; edited an mastered SIRMick June 2018 
  Archive
Source Information - Download Text | Download Zip
Grateful Dead
Roanoke Civic Center
Roanoke, VA
07/08/1987


Source: (FOB) Schoeps cmc mk4 (ortf) > pcm > dat - Provided by Rich Gastwirt
Transfer: Dat > Sony PCM-R500 > Sound Devices 744T > wav 16/48 - Transferred by Charlie Miller
Lineage: wav > iZotope RX6 Advanced > iZotope Ozone 5 Advanced > CD Wave > TLH > Flac 16


Set II

01   crowd
02   Scarlet Begonias >
03   Fire On The Mountain
04   Estimated Prophet >
05   He's Gone >
06   Drums >
07   Space >
08   Crazy Fingers >
09   Truckin' >
10   Comes A Time >
11   Sugar Magnolia
12   ~~encore break~~

encore

13   Black Muddy River



Thanks to Rich Gastwirt for providing this source and Charlie Miller for the transfer.


edited and mastered
SIRMick
June 2018


shntool output:

    length     expanded size    cdr  WAVE problems  fmt   ratio  filename
     0:07.71        1401836 B   ---   --   ---xx   flac  0.0967  gd1987-07-08s2t01.flac
     1:48.62       19197068 B   ---   --   ---xx   flac  0.5535  gd1987-07-08s2t02.flac
     8:21.36       88461116 B   ---   --   ---xx   flac  0.6483  gd1987-07-08s2t03.flac
     9:33.70      101241884 B   ---   --   ---xx   flac  0.6611  gd1987-07-08s2t04.flac
    10:46.22      114006188 B   ---   --   ---xx   flac  0.6467  gd1987-07-08s2t05.flac
     9:57.62      105456668 B   ---   --   ---xx   flac  0.5999  gd1987-07-08s2t06.flac
     8:09.58       86396060 B   ---   --   ---xx   flac  0.5762  gd1987-07-08s2t07.flac
     6:18.55       66808604 B   ---   --   ---xx   flac  0.4996  gd1987-07-08s2t08.flac
     8:15.27       87381548 B   ---   --   ---xx   flac  0.6361  gd1987-07-08s2t09.flac
     6:17.03       66509900 B   ---   --   ---xx   flac  0.6827  gd1987-07-08s2t10.flac
     7:16.31       76983356 B   ---   --   ---xx   flac  0.5635  gd1987-07-08s2t11.flac
     8:01.09       84869612 B   ---   --   ---xx   flac  0.6844  gd1987-07-08s2t12.flac
     2:39.19       28092332 B   ---   --   ---xx   flac  0.6088  gd1987-07-08s2t13.flac
     7:05.09       74991212 B   ---   --   ---xx   flac  0.6228  gd1987-07-08s2t14.flac
    94:39.09     1001797384 B                            0.6203  (14 files)


Show Checksums
ffp
gd1987-07-08s2t01.flac:45bf13fbdfbfa8556ebdac60331eec9f
gd1987-07-08s2t02.flac:bdbfed6ef92917594022626324bf6bed
gd1987-07-08s2t03.flac:b501105f882cf89ecd3173d8caf9ee22
gd1987-07-08s2t04.flac:35063bc3ba049f349516fb8b6863ce7f
gd1987-07-08s2t05.flac:87fe8c58216079fc340d1add7a4420b4
gd1987-07-08s2t06.flac:0ed9bec4bacc0a8c6befe070499a2203
gd1987-07-08s2t07.flac:542b4b7714136638eecd16cc7f09fce2
gd1987-07-08s2t08.flac:9162ba9c4bcfc54a1f2dbf6e43096ed3
gd1987-07-08s2t09.flac:a9613b6c1929d68a73e86aa0596c1035
gd1987-07-08s2t10.flac:a83c7ec9a3d1ee67d168e6a25c6cc2bf
gd1987-07-08s2t11.flac:330c701a52327aaabdf512a60369866e
gd1987-07-08s2t12.flac:84b83f2ad4805d47cea1f2403213f31b
gd1987-07-08s2t13.flac:5af90227597cadc1363e0bb3339288d9
gd1987-07-08s2t14.flac:43235f80d69f0e62aa1ca17afdd68d05
flac-md5
35a5bafd54facaa6976c7aa2dbf4476b *gd1987-07-08s2t01.flac
8c01d06f72e02ce6796a913689e1189e *gd1987-07-08s2t02.flac
0ed24edb1cbd92b16e1e5b6c8020a719 *gd1987-07-08s2t03.flac
f0abb57a913baa7fe144aa2b48ef4d92 *gd1987-07-08s2t04.flac
8e221b0d609686d0b4f8f810a0ee7c02 *gd1987-07-08s2t05.flac
48cdf099ced3d0d8a0561e21012b5ece *gd1987-07-08s2t06.flac
5952d5c45733dca954092afbcde1b2a1 *gd1987-07-08s2t07.flac
1129b2400f018e3db1619580f69ce2f2 *gd1987-07-08s2t08.flac
f28d765de6828d63b5c8d50710fded00 *gd1987-07-08s2t09.flac
c5117d355414da21b58d984412f41d51 *gd1987-07-08s2t10.flac
3d6984561bdb6ffccea1b1a8500e814d *gd1987-07-08s2t11.flac
41e6b80ee0ba09293195107c2d4b5127 *gd1987-07-08s2t12.flac
1b90e49e42f25d29b510206159bd9a35 *gd1987-07-08s2t13.flac
530b5a58cedd9fc399c77dab16d05237 *gd1987-07-08s2t14.flac

Comments
Add Comment
Other Sources (comments)
FOB aud.->DAT->WAV->SHN;... (1) AUD (taper's section)>... (1) FOB Schoeps > PCM > DAT @... (0) flac16; Source:... (0) flac16; Recording... (0) flac16; Recorded by... (0) flac16; Recording:... (0) flac24; Source:... (0)
Date User Comment