Browse Collections Artists Sources   Search Dates

Add Show    List Management    Help


Grateful Dead 08/23/87
Calaveras County Fairgrounds, Angels Camp, CA
Comments Add Comment    Source Collectors    Add to Collection    Add to Want List    History
Source # 142150 Other Sources
Entered by Matt Vernon
Checksums ffp , flac-md5
Disc Counts 0 / 0
Media Size
Date Circulated
Date Added
06/07/2018
06/07/2018
Source Summary flac24; Recording Info: UltraMatrix SBD > Beta HiFi Master (Sony Betamax/TDK HS); Transfer Info: Beta HiFi Master (Sony SL-HF66) > Tascam DA-3000 (DSF 1-bit/5.6 MHz) > dBpoweramp > Samplitude Pro X3 Suite > FLAC/24; All Transfers and Mastering By Charlie Miller 
  Archive
Source Information - Download Text | Download Zip
Grateful Dead - August 23, 1987
Calavaras County Fairgrounds - Angel's Camp, CA

Recording Info:
UltraMatrix SBD > Beta HiFi Master (Sony Betamax/TDK HS)

Transfer Info:
Beta HiFi Master (Sony SL-HF66) > Tascam DA-3000 (DSF 1-bit/5.6 MHz) >
dBpoweramp > Samplitude Pro X3 Suite > FLAC/24
(1 DVD FLAC)

All Transfers and Mastering By Charlie Miller
[email protected]
June 7, 2018

Notes:
-- Iko Iko and All Along The Watchtower with Carlos Santana

Set 1:
01 - Tuning
02 - Box Of Rain
03 - Jack Straw
04 - West L.A. Fadeaway
05 - Me And My Uncle >
06 - Mexicali Blues
07 - High Time
08 - Walkin' Blues
09 - Iko Iko
10 - All Along The Watchtower

Set 2:
11 - Tuning
12 - Scarlet Begonias >
13 - Fire On The Mountain
14 - Playing In The Band >
15 - Drums >
16 - Space >
17 - I Need A Miracle >
18 - Dear Mr. Fantasy >
19 - Playing In The Band >
20 - Morning Dew

Encore:
21 - Encore Break
22 - Not Fade Away >
23 - Brokedown Palace


SHNTOOL OUTPUT:
    length     expanded size    cdr  WAVE problems  fmt   ratio  filename
     1:44.897      60420884 B   cxx   --   ---xx   flac  0.5855  01 Tuning.flac
     4:54.970     169902614 B   cxx   --   ---xx   flac  0.6472  02 Box Of Rain.flac
     6:45.221     233407292 B   cxx   --   ---xx   flac  0.6386  03 Jack Straw.flac
     9:20.599     322905092 B   cxx   --   ---xx   flac  0.6044  04 West LA Fadeaway.flac
     3:13.131     111243728 B   cxx   --   ---xx   flac  0.6356  05 Me And My Uncle.flac
     5:11.115     179202512 B   cxx   --   ---xx   flac  0.6302  06 Mexicali Blues.flac
     8:42.243     300811826 B   cxx   --   ---xx   flac  0.5922  07 High Time.flac
     7:03.203     243765230 B   cxx   --   ---xx   flac  0.6001  08 Walkin' Blues.flac
     6:06.322     211001768 B   cxx   --   ---xx   flac  0.6376  09 Iko Iko.flac
     6:10.224     213248990 B   cxx   --   ---xx   flac  0.6343  10 All Along The Watchtower.flac
     0:50.447      29057696 B   cxx   --   ---xx   flac  0.5402  11 Tuning.flac
     8:32.824     295386668 B   cxx   --   ---xx   flac  0.6301  12 Scarlet Begonias.flac
    12:11.785     421508216 B   cxx   --   ---xx   flac  0.6174  13 Fire On The Mountain.flac
     8:37.058     297825176 B   cxx   --   ---xx   flac  0.6215  14 Playing In The Band.flac
     7:03.346     243847118 B   cxx   --   ---xx   flac  0.5969  15 Drums.flac
     7:56.298     274347842 B   cxx   --   ---xx   flac  0.5639  16 Space.flac
     3:39.640     126512876 B   cxx   --   ---xx   flac  0.6474  17 I Need A Miracle.flac
     5:02.419     174193130 B   cxx   --   ---xx   flac  0.6402  18 Dear Mr Fantasy.flac
     2:31.792      87431948 B   cxx   --   ---xx   flac  0.6242  19 Playing In The Band.flac
    10:34.229     365315774 B   cxx   --   ---xx   flac  0.6137  20 Morning Dew.flac
     1:59.678      68934656 B   cxx   --   ---xx   flac  0.5932  21 Encore Break.flac
     8:22.005     289154906 B   cxx   --   ---xx   flac  0.6209  22 Not Fade Away.flac
     5:42.933     197529656 B   cxx   --   ---xx   flac  0.6197  23 Brokedown Palace.flac
   142:16.379    4916955598 B                            0.6162  (23 files)


Show Checksums
ffp
01 Tuning.flac:75be51739b93b712886eed9712adf6c8
02 Box Of Rain.flac:35936abb76f06fbaee326f4530ea156b
03 Jack Straw.flac:d1f21d524621b0b679dbcb1d054c4d6f
04 West LA Fadeaway.flac:2d3c6ec62718f216849c0e13f1109f5e
05 Me And My Uncle.flac:d14bc60ae5a66ebdeb8367b832e19c66
06 Mexicali Blues.flac:b229b8eaff8ae4c19119ac5941242b79
07 High Time.flac:3d93a2b0ac79d8a843ee1a01640e340f
08 Walkin' Blues.flac:98c656bfea1d7c6bbccb98d24d9ac3ed
09 Iko Iko.flac:94a1a5f4ad4c54ee60cd915833a34614
10 All Along The Watchtower.flac:f5583ed27f75fbace18ef60b5a100199
11 Tuning.flac:6759dfa804d451ebf850bebb22001758
12 Scarlet Begonias.flac:f4a44262c178ecc7f1b951079a6e990f
13 Fire On The Mountain.flac:00b98f67881419a096905e4e839563f8
14 Playing In The Band.flac:2a366a0b708dc96be6fd7dc9506b3edc
15 Drums.flac:2d49d2f02015d903ab60ef5482477657
16 Space.flac:6192e3e2c910c8317d44c94ee33e3e85
17 I Need A Miracle.flac:cd7ec26d8640aba45f00286aebc4d59a
18 Dear Mr Fantasy.flac:5245c07730f4d3818b06420e3f70feb6
19 Playing In The Band.flac:a176b769a451855baa2848ecf6cacbb5
20 Morning Dew.flac:e20dd2a6e8b71739aeacf09557c77e50
21 Encore Break.flac:4c7598eb5d1fcc977b4b67a8af3affa8
22 Not Fade Away.flac:096ef449ee7f11fde7c11db8f2561772
23 Brokedown Palace.flac:95aa5112098da7e9b0b48728d61d852d
flac-md5
c2040d7170a84ee1c613e92863ff1ea8 *01 Tuning.flac
fcff8654e4833c732d2f94c37af6c0f8 *02 Box Of Rain.flac
baf6f5092b3f81402a1fe39e7d2fa612 *03 Jack Straw.flac
92b0e0455e7b89205ea2602a79a384de *04 West LA Fadeaway.flac
e0f150a4f6e1022ae3772e9ba894af07 *05 Me And My Uncle.flac
0ef272ea0e782330452e5bf0a539656d *06 Mexicali Blues.flac
46c26957920c437873428efc5dbe2d7f *07 High Time.flac
96e8a23c716d1997f651597b372bcd62 *08 Walkin' Blues.flac
b9b28a0edfd539c3de16ac108ecea230 *09 Iko Iko.flac
d338c90f77432abf0d15d54f0dbaf4c1 *10 All Along The Watchtower.flac
d2bae9e65c325fb72405c6700f4de9b2 *11 Tuning.flac
e9a04a4366094166e21d61d70e619c01 *12 Scarlet Begonias.flac
5ac63f08f9df713166c3d4f2a343987e *13 Fire On The Mountain.flac
502307a581bb3e4e8a124cfa4e41c42e *14 Playing In The Band.flac
c313c6a856847fb7eef35cca0b84a03c *15 Drums.flac
3d2573f764a28b07d543310ca92cf6d3 *16 Space.flac
0a5d2370fa85400e2ab4a06a5271eb82 *17 I Need A Miracle.flac
a19ef76f318ba3c05ccba54f637b2063 *18 Dear Mr Fantasy.flac
1eca46e28a929ab62bd12bdcc7f4efb4 *19 Playing In The Band.flac
542fcabd3373c90153ef45e1b6f70b54 *20 Morning Dew.flac
b4523e988acd8abf444dbd22daf6ab2b *21 Encore Break.flac
da534d516b6bd52f3217ff8ef8246774 *22 Not Fade Away.flac
e41a0dae5213147284db1d443e5609e3 *23 Brokedown Palace.flac

Comments
Add Comment
Other Sources (comments)
SBD> MC> DAT> CDR> EAC>... (7) SBD>MC>DAT>CDR>EAC>shn -... (1) flac16; Analog... (0) flac24; 2 x AKG C460... (0) flac16; Recording... (4) flac16/48kHz;... (0) flac16; Recording... (0) flac16; Recording... (0) flac16; Source Info:... (0)
Date User Comment