Browse Collections Artists Sources   Search Dates

Add Show    List Management    Help


Grateful Dead 08/23/87
Calaveras County Fairgrounds, Angels Camp, CA
Comments Add Comment    Source Collectors    Add to Collection    Add to Want List    History
Source # 142151 Other Sources
Entered by Matt Vernon
Checksums ffp , flac-md5
Disc Counts 0 / 0
Media Size
Date Circulated
Date Added
06/07/2018
06/07/2018
Source Summary flac16; Recording Info: UltraMatrix SBD > PCM Master (Sony Betamax/TDK HS); Transfer Info: PCM Master (Sony SL-HF66) > Sony PCM-601ESD > Behringer Ultramatch Pro > Tascam DA-3000 (16-bit/44.1k) > Samplitude Pro X3 Suite > FLAC/16; All Transfers and Mastering By Charlie Miller 
  Archive
Source Information - Download Text | Download Zip
Grateful Dead - August 23, 1987
Calavaras County Fairgrounds - Angel's Camp, CA

Recording Info:
UltraMatrix SBD > PCM Master (Sony Betamax/TDK HS)

Transfer Info:
PCM Master (Sony SL-HF66) > Sony PCM-601ESD > Behringer Ultramatch Pro >
Tascam DA-3000 (16-bit/44.1k) > Samplitude Pro X3 Suite > FLAC/16
(3 Discs Audio / 1 DVD FLAC)

All Transfers and Mastering By Charlie Miller
[email protected]
June 7, 2018

Notes:
-- Recorded by Don Pearson
-- Iko Iko and All Along The Watchtower with Carlos Santana

Set 1:
01 - Tuning
02 - Box Of Rain
03 - Jack Straw
04 - West L.A. Fadeaway
05 - Me And My Uncle >
06 - Mexicali Blues
07 - High Time
08 - Walkin' Blues
09 - Iko Iko
10 - All Along The Watchtower

Set 2:
11 - Tuning
12 - Scarlet Begonias >
13 - Fire On The Mountain
14 - Playing In The Band >
15 - Drums >
16 - Space >
17 - I Need A Miracle >
18 - Dear Mr. Fantasy >
19 - Playing In The Band >
20 - Morning Dew

Encore:
21 - Encore Break
22 - Not Fade Away >
23 - Brokedown Palace


SHNTOOL OUTPUT:
    length     expanded size    cdr  WAVE problems  fmt   ratio  filename
     1:45.73       18693740 B   ---   --   ---xx   flac  0.4709  01 Tuning.flac
     4:54.68       52021580 B   ---   --   ---xx   flac  0.5995  02 Box Of Rain.flac
     6:45.17       71482028 B   ---   --   ---xx   flac  0.5780  03 Jack Straw.flac
     9:20.45       98889884 B   ---   --   ---xx   flac  0.5460  04 West LA Fadeaway.flac
     3:13.09       34066412 B   ---   --   ---xx   flac  0.6185  05 Me And My Uncle.flac
     5:11.09       54881612 B   ---   --   ---xx   flac  0.6108  06 Mexicali Blues.flac
     8:42.18       92123180 B   ---   --   ---xx   flac  0.5291  07 High Time.flac
     7:03.16       74654876 B   ---   --   ---xx   flac  0.5330  08 Walkin' Blues.flac
     6:06.24       64618892 B   ---   --   ---xx   flac  0.6143  09 Iko Iko.flac
     6:10.17       65308028 B   ---   --   ---xx   flac  0.5894  10 All Along The Watchtower.flac
     0:51.36        9081116 B   ---   --   ---xx   flac  0.4312  11 Tuning.flac
     8:32.62       90462668 B   ---   --   ---xx   flac  0.5929  12 Scarlet Begonias.flac
    12:11.59      129087212 B   ---   --   ---xx   flac  0.5622  13 Fire On The Mountain.flac
     8:37.04       91208252 B   ---   --   ---xx   flac  0.5683  14 Playing In The Band.flac
     7:03.26       74678396 B   ---   --   ---xx   flac  0.5003  15 Drums.flac
     7:56.22       84018188 B   ---   --   ---xx   flac  0.4404  16 Space.flac
     3:39.48       38744540 B   ---   --   ---xx   flac  0.6124  17 I Need A Miracle.flac
     5:02.32       53348108 B   ---   --   ---xx   flac  0.5885  18 Dear Mr Fantasy.flac
     2:31.59       26775212 B   ---   --   ---xx   flac  0.5635  19 Playing In The Band.flac
    10:34.17      111877628 B   ---   --   ---xx   flac  0.5408  20 Morning Dew.flac
     1:59.51       21111596 B   ---   --   ---xx   flac  0.5296  21 Encore Break.flac
     8:22.01       88555196 B   ---   --   ---xx   flac  0.5634  22 Not Fade Away.flac
     5:42.30       60399404 B   ---   --   ---xx   flac  0.5760  23 Brokedown Palace.flac
   142:17.68     1506087748 B                            0.5574  (23 files)


Show Checksums
ffp
01 Tuning.flac:2a9a675e2ea563bc87e89d4682beaa60
02 Box Of Rain.flac:5c117fff149e271c4f29ea85375b7839
03 Jack Straw.flac:2f7010eb3ff816df0ff0311e97c36468
04 West LA Fadeaway.flac:f4afa6d68b2229150c0029e46cf3dec2
05 Me And My Uncle.flac:385296869346c836a9c05ac790a4cdce
06 Mexicali Blues.flac:f43c229942c2cfe93635ffea13c8de58
07 High Time.flac:eb9f8909b342118295937980e8b799d2
08 Walkin' Blues.flac:1fa04409c5fea58be0ef1fbc6ddce2e0
09 Iko Iko.flac:91472aa2f7e73fdc6a967b4b286b4bcd
10 All Along The Watchtower.flac:f47e506fc47f025fe442295a2c2533d8
11 Tuning.flac:50ac1c2705cc47045ed84b5ae50a1ced
12 Scarlet Begonias.flac:0bdd504c14612ee593da7c5d8d339b4f
13 Fire On The Mountain.flac:a98764bf31dc4300d176f45e68643859
14 Playing In The Band.flac:b72a116b042d923bd8bd72561ac41f79
15 Drums.flac:69b7e7eaedb886117154e6abd7241877
16 Space.flac:1eba20865b9a5aabfe87aae895020059
17 I Need A Miracle.flac:3f5031cfb343bf4f8f5fb143b182379e
18 Dear Mr Fantasy.flac:9e20cce9c5737b6a5e946f818f93320a
19 Playing In The Band.flac:7bf90364bc02a909daed598df2e25238
20 Morning Dew.flac:6ff6525eff35fec55a6170f19109e4ea
21 Encore Break.flac:6a8eaf82e39549b8c996f9fd10045f78
22 Not Fade Away.flac:dc2e8f324511949631f6fd864e9541af
23 Brokedown Palace.flac:c549dc1e30c42a3f64b149daee745eac
flac-md5
679f4b2067f6537e984fee91d4c8c223 *01 Tuning.flac
91166776c8dc1e81f5b4ad2ef6599af8 *02 Box Of Rain.flac
4c9f0eef870ae89ae0db6a2be22c5d49 *03 Jack Straw.flac
b3a644d7765ec975d2329b29ab80ecc7 *04 West LA Fadeaway.flac
75741a4beb9fa740133657d3c957253a *05 Me And My Uncle.flac
d0a74fbed6316a0379d1fd5b92bbe24b *06 Mexicali Blues.flac
848a70f5b9e2498d3cb845e9a655ee04 *07 High Time.flac
003cfc6116596e6c0081431ef74519b3 *08 Walkin' Blues.flac
4c5451ae9324dca8919df2c80b07bd5e *09 Iko Iko.flac
5d568a6838be6d58a5326665f76b4a1e *10 All Along The Watchtower.flac
cf55d4f7027eaab8b995eabf8b6f39fe *11 Tuning.flac
c806a70643870abcbfab3b11b3d43f00 *12 Scarlet Begonias.flac
ae3b82c3fb55f5be6dbb33d8dac4c1ce *13 Fire On The Mountain.flac
c16f9513ba5f6bbb56ff651672dbd802 *14 Playing In The Band.flac
b7c88bc229f858bad5ff4bca7df83146 *15 Drums.flac
62f1dbf87d0b851bd42511710c07d6df *16 Space.flac
5baa67e2f3d6d0761c7e7638c5bd94bf *17 I Need A Miracle.flac
c134d9cad1c4c0bbc08af7bbf900aec6 *18 Dear Mr Fantasy.flac
761faeb62632b545cd4b2ad2154d7fa4 *19 Playing In The Band.flac
ef04e1f6233aec4b8ea694139b17adbd *20 Morning Dew.flac
1bc34307d03b540d87ba230a5bd83264 *21 Encore Break.flac
ef93528279df6e2e654ce2de50acb693 *22 Not Fade Away.flac
32efe169df3d1ee8cf7dae2c062256b1 *23 Brokedown Palace.flac

Comments
Add Comment
Other Sources (comments)
SBD> MC> DAT> CDR> EAC>... (7) SBD>MC>DAT>CDR>EAC>shn -... (1) flac16; Analog... (0) flac24; 2 x AKG C460... (0) flac16; Recording... (4) flac16/48kHz;... (0) flac24; Recording... (0) flac16; Recording... (0) flac16; Source Info:... (0)
Date User Comment