Browse Collections Artists Sources   Search Dates

Add Show    List Management    Help


Grateful Dead 08/16/87
Town Park, Telluride, CO
Comments Add Comment    Source Collectors    Add to Collection    Add to Want List    History
Source # 142154 Other Sources
Entered by Matt Vernon
Checksums ffp , flac-md5
Disc Counts 0 / 0
Media Size
Date Circulated
Date Added
06/08/2018
06/08/2018
Source Summary flac16; Source Info: 1st Set - Oade's Master (FOB) Audience PCM; Schoeps CMC3/MK41 mics > Oade M118 > Oade modified Sony PCM-F1; 2nd Set - Oade's Master (FOB) Audience PCM; Schoeps CMC3/MK2 mics > Oade M118 > Oade modified Sony PCM-F1; Transfer Info: Master Oade PCM > Sek'd Prodif > Samplitude (.wav 16-bit/44.1k)> hard disk > Adobe Audition 3.0 > TLH flac16 
  Archive
Source Information - Download Text | Download Zip
Grateful Dead
Town Park
Telluride, CO
Sunday August 16th, 1987

Source Info:
1st Set - Oade's Master (FOB) Audience PCM; Schoeps CMC3/MK41 mics > Oade M118 > Oade modified Sony PCM-F1
2nd Set - Oade's Master (FOB) Audience PCM; Schoeps CMC3/MK2 mics > Oade M118 > Oade modified Sony PCM-F1

Transfer Info:
Master Oade PCM > Sek'd Prodif > Samplitude (.wav 16-bit/44.1k)> hard disk > Adobe Audition 3.0 > TLH flac16

Notes:
- Thanks to the Oade brothers and crew for their master recording(s), as well as the transfer to hard disk
- Thanks to Blake Jacobs for the hard disk
- Thanks to Charlie Miller for coordinating this effort
- Other One space included in "The Other One"
- Another fine Oade capture

Mastered by Scott Clugston
May 28, 2018

Set One:
t01 - Crowd
t02 - Mississippi Half-Step Uptown Toodeloo >
t03 - Little Red Rooster
t04 - Iko Iko
t05 - Beer Barrel Polka
t06 - Far From Me
t07 - West LA Fadeaway
t08 - When I Paint My Masterpiece
t09 - Big Railroad Blues >
t10 - Promised Land

Set 2:
t11 - When Push Comes To Shove >
t12 - Samson And Delilah >
t13 - He's Gone >
t14 - Drums >
t15 - Space >
t16 - The Other One >
t17 - Truckin' >
t18 - Black Peter >
t19 - Good Lovin'
t20 - Encore Break
t21 - Touch Of Grey >
t22 - Brokedown Palace


    length     expanded size    cdr  WAVE problems  fmt   ratio  filename
     2:26.11       25780316 B   ---   --   ---xx   flac  0.3655  gd87-08-16 t01 Crowd.flac
     7:19.23       77493740 B   ---   --   ---xx   flac  0.5668  gd87-08-16 t02 Mississippi Half-Step Uptown Toodeloo.flac
     9:22.17       99176828 B   ---   --   ---xx   flac  0.5505  gd87-08-16 t03 Little Red Rooster.flac
     6:18.38       66768620 B   ---   --   ---xx   flac  0.5650  gd87-08-16 t04 Iko Iko.flac
     2:03.29       21765452 B   ---   --   ---xx   flac  0.4783  gd87-08-16 t05 Beer Barrell Polka.flac
     4:17.30       45405404 B   ---   --   ---xx   flac  0.5780  gd87-08-16 t06 Far From Me.flac
     8:29.32       89862908 B   ---   --   ---xx   flac  0.5396  gd87-08-16 t07 West LA Fadeaway.flac
     4:55.27       52101548 B   ---   --   ---xx   flac  0.5787  gd87-08-16 t08 When I Paint My Masterpiece.flac
     4:01.60       42653564 B   ---   --   ---xx   flac  0.5948  gd87-08-16 t09 Big Railroad Blues.flac
     4:02.22       42740588 B   ---   --   ---xx   flac  0.6097  gd87-08-16 t10 Promised Land.flac
     4:35.50       48627644 B   ---   --   ---xx   flac  0.4926  gd87-08-16 t11 When Push Comes To Shove.flac
     6:58.74       73909292 B   ---   --   ---xx   flac  0.4980  gd87-08-16 t12 Samson & Delilah.flac
    10:26.69      110588732 B   ---   --   ---xx   flac  0.4381  gd87-08-16 t13 He's Gone.flac
     9:57.26      105371996 B   ---   --   ---xx   flac  0.4152  gd87-08-16 t14 Drums.flac
     3:30.65       37196924 B   ---   --   ---xx   flac  0.3619  gd87-08-16 t15 Space.flac
     8:40.74       91902092 B   ---   --   ---xx   flac  0.4437  gd87-08-16 t16 The Other One.flac
     6:16.21       66375836 B   ---   --   ---xx   flac  0.5020  gd87-08-16 t17 Truckin'.flac
     8:53.44       94124732 B   ---   --   ---xx   flac  0.4388  gd87-08-16 t18 Black Peter.flac
     8:31.04       90149852 B   ---   --   ---xx   flac  0.5068  gd87-08-16 t19 Good Lovin'.flac
     4:20.16       45901676 B   ---   --   ---xx   flac  0.3919  gd87-08-16 t20 Encore Break.flac
     6:00.55       63633404 B   ---   --   ---xx   flac  0.5189  gd87-08-16 t21 Touch Of Grey.flac
    10:32.73      111656540 B   ---   --   ---xx   flac  0.4331  gd87-08-16 t22 Brokedown Palace.flac
   142:01.35     1503187688 B                            0.4918  (22 files)


Show Checksums
ffp
gd87-08-16 t01 Crowd.flac:67522137705d795d1d4dda60a57052f4
gd87-08-16 t02 Mississippi Half-Step Uptown Toodeloo.flac:b33293ea17ff51f341c7f16e0aa5ecc8
gd87-08-16 t03 Little Red Rooster.flac:776f7697b7c3c89524eb154ba4207b0c
gd87-08-16 t04 Iko Iko.flac:8f82433661d3498d8f8a2618cbdcf4b2
gd87-08-16 t05 Beer Barrell Polka.flac:0254958bb35252ebb31a43feb2fd2f09
gd87-08-16 t06 Far From Me.flac:2faf556b0503f3b4ff1f7717ab24dc25
gd87-08-16 t07 West LA Fadeaway.flac:ba57f091d82c174919568c3a4368cc26
gd87-08-16 t08 When I Paint My Masterpiece.flac:707595fc36a7726ccb83d2cfacd624da
gd87-08-16 t09 Big Railroad Blues.flac:ea92fe13bf1f671e9a1ca1dae2128dd4
gd87-08-16 t10 Promised Land.flac:eb4de269c21b0c177e50d135a2a2d9b8
gd87-08-16 t11 When Push Comes To Shove.flac:c4eeea56d32716e9f7c3bcf4f826771a
gd87-08-16 t12 Samson & Delilah.flac:5bf32e5754a39f72d21c1b7e1c0963df
gd87-08-16 t13 He's Gone.flac:4dfc08039213ddd590a3a9c08de76f18
gd87-08-16 t14 Drums.flac:82d8fae98cd985a22a1822aae94df60e
gd87-08-16 t15 Space.flac:9de1a5a8691118d55bf845c8070eb8c3
gd87-08-16 t16 The Other One.flac:c5b9fb07080ffc147ce014adab6e14f2
gd87-08-16 t17 Truckin'.flac:f45aff601b9787da04a16a682018d1d0
gd87-08-16 t18 Black Peter.flac:835724d8f9e23c081b05198001fafbbf
gd87-08-16 t19 Good Lovin'.flac:5b1d1dd84e8a5df45be3f4440a2c32df
gd87-08-16 t20 Encore Break.flac:281cc30447c88d4e52d0682b5aab923b
gd87-08-16 t21 Touch Of Grey.flac:b155075af1bfcec81e493e4ff48a7828
gd87-08-16 t22 Brokedown Palace.flac:8e1a0a900276e1adde9f5a11f9028fdf
flac-md5
f3951fb547870f3c49e3b33498ee6416 *gd87-08-16 t01 Crowd.flac
e45f54586a3d11662710d7253ad26f71 *gd87-08-16 t02 Mississippi Half-Step Uptown Toodeloo.flac
add664ee7b723350fc4768f424901007 *gd87-08-16 t03 Little Red Rooster.flac
57c78ff87c2b500b63c77a2e9bf424ca *gd87-08-16 t04 Iko Iko.flac
67194a4ce83ead9e71e7a0b154509ef7 *gd87-08-16 t05 Beer Barrell Polka.flac
220bc6215cdb0ccaa91c577053054605 *gd87-08-16 t06 Far From Me.flac
b0d177e6a941455f25a2f843581a79a5 *gd87-08-16 t07 West LA Fadeaway.flac
30245fe58314600173cb9fbd3a0675d2 *gd87-08-16 t08 When I Paint My Masterpiece.flac
ef20005afb22ce4e3a92822aa5b6f85c *gd87-08-16 t09 Big Railroad Blues.flac
5e9cf175c6e7b2e902c280e84674c545 *gd87-08-16 t10 Promised Land.flac
37656f4a7c5272a7c72a5902af3ed29c *gd87-08-16 t11 When Push Comes To Shove.flac
94b8205a66b251138004c639136ec667 *gd87-08-16 t12 Samson & Delilah.flac
596581449f6459b784d110c007c13311 *gd87-08-16 t13 He's Gone.flac
b657b4b778647a87a212c0f0b877b324 *gd87-08-16 t14 Drums.flac
dfa4b46d02398fddc0ad0291f7796cc9 *gd87-08-16 t15 Space.flac
97525d6eab0f5631a7ccd676aaceb4d4 *gd87-08-16 t16 The Other One.flac
c1ea058cabbb94590d615f61c0696d9f *gd87-08-16 t17 Truckin'.flac
e3a8892fc4dcf1618fdd7bc7d882177b *gd87-08-16 t18 Black Peter.flac
aadbdbf38f2ef458bfd33597faf68fe6 *gd87-08-16 t19 Good Lovin'.flac
6bba8ff8b69c37bffb8bd6ad4010279d *gd87-08-16 t20 Encore Break.flac
f1d5dd4a11f41fb772c5ceb72200700b *gd87-08-16 t21 Touch Of Grey.flac
379fce9de7642f720a308dcb25af7950 *gd87-08-16 t22 Brokedown Palace.flac

Comments
Add Comment
Other Sources (comments)
PreFM > Rm > DAT > CDR >... (1) flac16; Recording... (0) flac16; Source:... (0)
Date User Comment