Browse Collections Artists Sources   Search Dates

Add Show    List Management    Help


Grateful Dead 08/18/87
Compton Terrace Amphitheatre, Tempe, AZ
Comments Add Comment    Source Collectors    Add to Collection    Add to Want List    History
Source # 142155 Other Sources
Entered by Matt Vernon
Checksums ffp , flac-md5
Disc Counts 0 / 0
Media Size
Date Circulated
Date Added
06/08/2018
06/08/2018
Source Summary flac16; Source Info: Oade's Master (FOB) Audience PCM; Schoeps CMC3/MK2 mics > Oade M118 > Oade modified Sony PCM-F1; Transfer Info: Master Oade PCM > Sek'd Prodif > Samplitude (.wav 16-bit/44.1k)> hard disk > Adobe Audition 3.0 > TLH flac16 
  Archive
Source Information - Download Text | Download Zip
Grateful Dead
Compton Terrace Amphitheater
Tempe, AZ
Tuesday August 18th, 1987

Source Info:
Oade's Master (FOB) Audience PCM; Schoeps CMC3/MK2 mics > Oade M118 > Oade modified Sony PCM-F1

Transfer Info:
Master Oade PCM > Sek'd Prodif > Samplitude (.wav 16-bit/44.1k)> hard disk > Adobe Audition 3.0 > TLH flac16

Notes:
- Thanks to the Oade brothers and crew for their master recording(s), as well as the transfer to hard disk
- Thanks to Blake Jacobs for the hard disk
- Thanks to Charlie Miller for coordinating this effort
- Another fine Oade capture

Mastered by Scott Clugston
May 29, 2018

Set One:
t01 - Hell In A Bucket >
t02 - Sugaree
t03 - Walkin' Blues
t04 - Ramble On Rose
t05 - My Brother Esau
t06 - Peggy O
t07 - Greatest Story Ever Told >
t08 - Bertha

Set Two:
t09 - Crowd
t10 - Crazy Fingers >
t11 - Playin' In The Band >
t12 - Terrapin Station >
t13 - Drums >
t14 - Space >
t15 - Dear Mr. Fantasy >
t16 - Wharf Rat >
t17 - Throwing Stones >
t18 - Turn On Your Lovelight
t19 - Encore Break
t20 - Black Muddy River



    length     expanded size    cdr  WAVE problems  fmt   ratio  filename
     6:01.30       63751004 B   ---   --   ---xx   flac  0.5881  gd87-08-18 t01 Hell In A Bucket.flac
    10:27.34      110682812 B   ---   --   ---xx   flac  0.5806  gd87-08-18 t02 Sugaree.flac
     7:26.52       78796748 B   ---   --   ---xx   flac  0.5522  gd87-08-18 t03 Walkin' Blues.flac
     8:42.26       92141996 B   ---   --   ---xx   flac  0.5340  gd87-08-18 t04 Ramble On Rose.flac
     4:52.18       51551180 B   ---   --   ---xx   flac  0.5878  gd87-08-18 t05 My Brother Esau.flac
     7:01.46       74372636 B   ---   --   ---xx   flac  0.5282  gd87-08-18 t06 Peggy O.flac
     4:02.15       42724124 B   ---   --   ---xx   flac  0.6099  gd87-08-18 t07 Greatest Story Ever Told.flac
     6:47.09       71816012 B   ---   --   ---xx   flac  0.6052  gd87-08-18 t08 Bertha.flac
     1:40.65       17792924 B   ---   --   ---xx   flac  0.4349  gd87-08-18 t09 Crowd.flac
     7:48.34       82635212 B   ---   --   ---xx   flac  0.5368  gd87-08-18 t10 Crazy Fingers.flac
     7:55.24       83846492 B   ---   --   ---xx   flac  0.5796  gd87-08-18 t11 Playin' In The Band.flac
    12:10.49      128887292 B   ---   --   ---xx   flac  0.5647  gd87-08-18 t12 Terrapin Station.flac
     7:24.06       78335756 B   ---   --   ---xx   flac  0.4774  gd87-08-18 t13 Drums.flac
     4:39.14       49248572 B   ---   --   ---xx   flac  0.4633  gd87-08-18 t14 Space.flac
     5:54.16       62483276 B   ---   --   ---xx   flac  0.5746  gd87-08-18 t15 Dear Mr. Fantasy.flac
     8:19.73       88195340 B   ---   --   ---xx   flac  0.5541  gd87-08-18 t16 Wharf Rat.flac
     8:52.22       93896588 B   ---   --   ---xx   flac  0.6102  gd87-08-18 t17 Throwing Stones.flac
     5:35.25       59152844 B   ---   --   ---xx   flac  0.6087  gd87-08-18 t18 Turn On Your Lovelight.flac
     2:41.67       28558028 B   ---   --   ---xx   flac  0.5224  gd87-08-18 t19 Encore Break.flac
     8:34.04       90679052 B   ---   --   ---xx   flac  0.5286  gd87-08-18 t20 Black Muddy River.flac
   136:57.29     1449547888 B                            0.5575  (20 files)


Show Checksums
ffp
gd87-08-18 t01 Hell In A Bucket.flac:260f41b35380a649f762ece71c8c7597
gd87-08-18 t02 Sugaree.flac:8bc90949017f68203592b541f398b883
gd87-08-18 t03 Walkin' Blues.flac:0f751ade772d8a3dda1ed3f44b5712ec
gd87-08-18 t04 Ramble On Rose.flac:38bac822fa907a4b4cda9815ae1870d6
gd87-08-18 t05 My Brother Esau.flac:6227b25068d3eeec5ae1435b845464fe
gd87-08-18 t06 Peggy O.flac:9cf48dd1b8bba1be4a4fd0f1a142dcbe
gd87-08-18 t07 Greatest Story Ever Told.flac:a90d0d9f52c31982726ff15e987ad07e
gd87-08-18 t08 Bertha.flac:bad85b514e4a4213b4bdfd667a9fa5a2
gd87-08-18 t09 Crowd.flac:2cd878a00c41818536d6a208d4b958f1
gd87-08-18 t10 Crazy Fingers.flac:0cac295c2a41050a18d45bc49592b957
gd87-08-18 t11 Playin' In The Band.flac:094e767f7a6464b5cfc95fb161dc68ee
gd87-08-18 t12 Terrapin Station.flac:f72375133f012cba9dab8373d6bead47
gd87-08-18 t13 Drums.flac:d242b39f27ae932254bf8152e923aecd
gd87-08-18 t14 Space.flac:54b2a98d4656faa5078c33700840b456
gd87-08-18 t15 Dear Mr. Fantasy.flac:f7146c851787678a08ea07f83b7dc4d4
gd87-08-18 t16 Wharf Rat.flac:5064f80b8a094d35e7e5a9647bd87dfc
gd87-08-18 t17 Throwing Stones.flac:2d9b5ac4eae30cd6b9c9603cf748bb6c
gd87-08-18 t18 Turn On Your Lovelight.flac:7cec2ae78fbcfb268b5770fa28441038
gd87-08-18 t19 Encore Break.flac:414b3059efeedb846fd7d0489479ff21
gd87-08-18 t20 Black Muddy River.flac:d1dfedc478ee2babe72b3bb9dae6cf21
flac-md5
76cef475e309f5eb0d66c9ed63cae9bc *gd87-08-18 t01 Hell In A Bucket.flac
71b2fc02674c075f2fb8f09a30bd9590 *gd87-08-18 t02 Sugaree.flac
0d173ed56ed42db9be631a30fbe388d3 *gd87-08-18 t03 Walkin' Blues.flac
a29e760dd0f68165a4f75d24b417bd4a *gd87-08-18 t04 Ramble On Rose.flac
cbdb9c7b43d34aa55efa0156c1704675 *gd87-08-18 t05 My Brother Esau.flac
f52ae792034441e05faf6e9049a50b85 *gd87-08-18 t06 Peggy O.flac
ec1ac8e7808ae1b8ce03e34dfbb11ce6 *gd87-08-18 t07 Greatest Story Ever Told.flac
0e70357578a5e74d214ee4f47c843140 *gd87-08-18 t08 Bertha.flac
a9f6b554aaa2c2b267076c003ba49e71 *gd87-08-18 t09 Crowd.flac
09fe45f3490bea0af5075a7f591964af *gd87-08-18 t10 Crazy Fingers.flac
e40077227ae3a5a71835d80bde5124da *gd87-08-18 t11 Playin' In The Band.flac
f071f6755ede31e44a117bca7c7149ec *gd87-08-18 t12 Terrapin Station.flac
35bee0ea08b6d454c3d01b1216f32fb6 *gd87-08-18 t13 Drums.flac
715760fd0e98f9f46b350d86ace01879 *gd87-08-18 t14 Space.flac
fda1d06e873a660ca95ba5019828baac *gd87-08-18 t15 Dear Mr. Fantasy.flac
81d5b614bbf2905c572781ede5dd8e3b *gd87-08-18 t16 Wharf Rat.flac
d8a6a9ed45c8a53c1e638bf1a85e3bcf *gd87-08-18 t17 Throwing Stones.flac
b62d054b201cefa787a77d6fca701889 *gd87-08-18 t18 Turn On Your Lovelight.flac
d19a00d6ea913e9e548a88775dfa8c5d *gd87-08-18 t19 Encore Break.flac
ca96007827e003405142fb239bc7101e *gd87-08-18 t20 Black Muddy River.flac

Comments
Add Comment
Other Sources (comments)
Schoeps CMC 32s > DAT > CD;... (1) flac16; FOB Schoeps... (1) flac16; Rich... (0) flac24; Set 1... (0) flac16; Set 1... (0)
Date User Comment