Browse Collections Artists Sources   Search Dates

Add Show    List Management    Help


Grateful Dead 08/20/87
Park West Ski Resort, Park City, UT
Comments Add Comment    Source Collectors    Add to Collection    Add to Want List    History
Source # 142156 Other Sources
Entered by Matt Vernon
Checksums ffp , flac-md5
Disc Counts 0 / 0
Media Size
Date Circulated
Date Added
06/08/2018
06/08/2018
Source Summary flac16; Source Info: Oade's Master (FOB) Audience PCM; Schoeps CMC3/MK41mics > Oade M118 > Oade modified Sony PCM-F1; Transfer Info: Master Oade PCM > Sek'd Prodif > Samplitude (.wav 16-bit/44.1k)> hard disk > Adobe Audition 3.0 > TLH flac16 
  Archive
Source Information - Download Text | Download Zip
Grateful Dead
Park West Ski Resort
Park City, UT
Thursday August 20th, 1987

Source Info:
Oade's Master (FOB) Audience PCM; Schoeps CMC3/MK41mics > Oade M118 > Oade modified Sony PCM-F1

Transfer Info:
Master Oade PCM > Sek'd Prodif > Samplitude (.wav 16-bit/44.1k)> hard disk > Adobe Audition 3.0 > TLH flac16

Notes:
- Thanks to the Oade brothers and crew for their master recording(s), as well as the transfer to hard disk
- Thanks to Blake Jacobs for the hard disk
- Thanks to Charlie Miller for coordinating this effort
- Thanks to Dougal Donaldson, John Ammons and Joe Noel for the shnid138285 Schoeps CMC3/MK2 source which supplies 3:05 of "Addams Family Tuning"
- Wheel noodle included in "The Wheel"
- Another fine Oade capture

Mastered by Scott Clugston
June 1, 2018

Set One:
t01 - Addam's Family Tuning
t02 - Big Boss Man >
t03 - Promised Land
t04 - Dire Wolf
t05 - New Minglewood Blues
t06 - Row Jimmy
t07 - It's All Over Now
t08 - Loser
t09 - Cassidy
t10 - When Push Comes To Shove

Set Two:
t11 - Crowd
t12 - China Cat Sunflower >
t13 - I Know You Rider
t14 - Man Smart (Woman Smarter)
t15 - Ship of Fools
t16 - Truckin' >
t17 - Smokestack Lightnin' >
t18 - Drums >
t19 - Space >
t20 - The Wheel >
t21 - Gimme Some Lovin' >
t22 - All Along The Watchtower >
t23 - Stella Blue >
t24 - Sugar Magnolia
t25 - Encore Break
t26 - Quinn The Eskimo (The Mighty Quinn)



    length     expanded size    cdr  WAVE problems  fmt   ratio  filename
     4:54.10       51885164 B   ---   --   ---xx   flac  0.4106  gd87-08-20 t01 Addams Family Tuning.flac
     5:35.33       59171660 B   ---   --   ---xx   flac  0.5864  gd87-08-20 t02 Big Boss Man.flac
     5:24.23       57207740 B   ---   --   ---xx   flac  0.5604  gd87-08-20 t03 Promised Land.flac
     3:49.70       40560284 B   ---   --   ---xx   flac  0.5740  gd87-08-20 t04 Dire Wolf.flac
     8:41.71       92071436 B   ---   --   ---xx   flac  0.5565  gd87-08-20 t05 New Minglewood Blues.flac
    10:55.46      115650236 B   ---   --   ---xx   flac  0.5307  gd87-08-20 t06 Row Jimmy.flac
     7:21.32       77867708 B   ---   --   ---xx   flac  0.5837  gd87-08-20 t07 It's All Over Now.flac
     9:20.15       98819324 B   ---   --   ---xx   flac  0.5238  gd87-08-20 t08 Loser.flac
     6:54.65       73182524 B   ---   --   ---xx   flac  0.5959  gd87-08-20 t09 Cassidy.flac
     4:56.37       52301468 B   ---   --   ---xx   flac  0.6001  gd87-08-20 t10 When Push Comes To Shove.flac
     0:44.57        7895708 B   ---   --   ---xx   flac  0.4562  gd87-08-20 t11 Crowd.flac
     5:24.64       57304172 B   ---   --   ---xx   flac  0.5958  gd87-08-20 t12 China Cat Sunflower.flac
     6:02.10       63880364 B   ---   --   ---xx   flac  0.6049  gd87-08-20 t13 I Know You Rider.flac
     7:25.58       78634460 B   ---   --   ---xx   flac  0.6114  gd87-08-20 t14 Man Smart (Woman Smarter).flac
     8:21.05       88388204 B   ---   --   ---xx   flac  0.5556  gd87-08-20 t15 Ship Of Fools.flac
     6:34.39       69593372 B   ---   --   ---xx   flac  0.6300  gd87-08-20 t16 Truckin'.flac
     4:22.69       46379132 B   ---   --   ---xx   flac  0.5789  gd87-08-20 t17 Smokestack Lightnin'.flac
    10:09.52      107549948 B   ---   --   ---xx   flac  0.4800  gd87-08-20 t18 Drums.flac
     5:41.44       60255932 B   ---   --   ---xx   flac  0.4475  gd87-08-20 t19 Space.flac
     5:19.49       56386892 B   ---   --   ---xx   flac  0.5575  gd87-08-20 t20 The Wheel.flac
     4:40.47       49502588 B   ---   --   ---xx   flac  0.6200  gd87-08-20 t21 Gimme Some Lovin'.flac
     5:32.55       58694204 B   ---   --   ---xx   flac  0.6363  gd87-08-20 t22 All Along The Watchtower.flac
     8:39.47       91662188 B   ---   --   ---xx   flac  0.5188  gd87-08-20 t23 Stella Blue.flac
     8:40.16       91765676 B   ---   --   ---xx   flac  0.6491  gd87-08-20 t24 Sugar Magnolia.flac
     1:53.38       20022620 B   ---   --   ---xx   flac  0.4826  gd87-08-20 t25 Encore Break.flac
     5:09.29       54575852 B   ---   --   ---xx   flac  0.5851  gd87-08-20 t26 Quinn The Eskimo (The Mighty Quinn).flac
   162:37.31     1721208856 B                            0.5619  (26 files)


Show Checksums
ffp
gd87-08-20 t01 Addams Family Tuning.flac:e7751a8b2184fa3eb1fa0994e2bb7e48
gd87-08-20 t02 Big Boss Man.flac:26968e0e4634403c51daf52d4b2a3b01
gd87-08-20 t03 Promised Land.flac:b88378db7eeae82d083d878c7cddbd89
gd87-08-20 t04 Dire Wolf.flac:156fd71a48dd926be3a1111c0ffb3702
gd87-08-20 t05 New Minglewood Blues.flac:0aae3d36b9e264968cd0197941f3b47a
gd87-08-20 t06 Row Jimmy.flac:4c1a80993d5718e1a095166f4775dc64
gd87-08-20 t07 It's All Over Now.flac:f7979a0b249ae8170c33741e7a49e135
gd87-08-20 t08 Loser.flac:176f5686b8517a46ab36efcbd1ad0bb7
gd87-08-20 t09 Cassidy.flac:d2dba4bca9ee0f38078f3a2377137ce1
gd87-08-20 t10 When Push Comes To Shove.flac:07986ad4a926bef18d3d641e595532bc
gd87-08-20 t11 Crowd.flac:0a2b745829758c89af252c0271e10b29
gd87-08-20 t12 China Cat Sunflower.flac:0f9340c7d0c5c142c93437f424d342bf
gd87-08-20 t13 I Know You Rider.flac:6329f634d0850e441db125b21851dfaf
gd87-08-20 t14 Man Smart (Woman Smarter).flac:e45c88866978938c180a3d24b0c8bac7
gd87-08-20 t15 Ship Of Fools.flac:f6e6c0ce51a453e8c7e64ddaf556e52b
gd87-08-20 t16 Truckin'.flac:e629af86a3185bcba33482074f205be4
gd87-08-20 t17 Smokestack Lightnin'.flac:e8516665c8f7c24462d309b6c3ddf9bd
gd87-08-20 t18 Drums.flac:d3592192d057db381e37552bacffd1a3
gd87-08-20 t19 Space.flac:768e5574b0b7c7ed4063686984686c88
gd87-08-20 t20 The Wheel.flac:4e8b251cad320c05633686004c7c56d0
gd87-08-20 t21 Gimme Some Lovin'.flac:1c69ce385a2fe7a8986b7e96eaf3bd2a
gd87-08-20 t22 All Along The Watchtower.flac:f961e2850031572a555f119ba1e0fe88
gd87-08-20 t23 Stella Blue.flac:4b881d44dfab4c65ef1f972974e776fe
gd87-08-20 t24 Sugar Magnolia.flac:65098c1036f7a5161305c03268844b69
gd87-08-20 t25 Encore Break.flac:2c8d2fcd3415c351d1c5e95c0a2776f6
gd87-08-20 t26 Quinn The Eskimo (The Mighty Quinn).flac:dceb88fbe46df66f4d4731db0ebf3d60
flac-md5
e07bde5e9ca88e228bd8047ad756d70b *gd87-08-20 t01 Addams Family Tuning.flac
a3738b61bad3d2920c0237ed1e24fdbd *gd87-08-20 t02 Big Boss Man.flac
435669c6e1568f08c0a1298384e7ff4b *gd87-08-20 t03 Promised Land.flac
709d5c4c33158bec764c7ecd60f1772a *gd87-08-20 t04 Dire Wolf.flac
0f80107cc269d4a2690fcd345b06f7fb *gd87-08-20 t05 New Minglewood Blues.flac
5ec1ce506b49433b545f65df0617df81 *gd87-08-20 t06 Row Jimmy.flac
40a193d86446d90c88605109165be4e8 *gd87-08-20 t07 It's All Over Now.flac
1a956fe515ebea4eee92ebe42f64f022 *gd87-08-20 t08 Loser.flac
6f8aa3dee15a27a9bda8156e294edd3b *gd87-08-20 t09 Cassidy.flac
0428123a7679a861503b36cd1081aeef *gd87-08-20 t10 When Push Comes To Shove.flac
fbfa6ff6b9a5f0505b058836626125b1 *gd87-08-20 t11 Crowd.flac
5d4b0e4ac0f3597ee7154aa7eb65113e *gd87-08-20 t12 China Cat Sunflower.flac
17fdafe7cc8a38790624d6fb98b78fe3 *gd87-08-20 t13 I Know You Rider.flac
e5974ac7748554c790490558ae2a4c5e *gd87-08-20 t14 Man Smart (Woman Smarter).flac
e0b2be177a50eb35d4975f4dd9572437 *gd87-08-20 t15 Ship Of Fools.flac
2ab8281253f3d0138e3c27630ea5892f *gd87-08-20 t16 Truckin'.flac
66716c51c9b027edab6c5f06a93a9f46 *gd87-08-20 t17 Smokestack Lightnin'.flac
72a2670e02f5f2a133f3857272693439 *gd87-08-20 t18 Drums.flac
f0522e3ff4f780fd13a6669a8c2ae51f *gd87-08-20 t19 Space.flac
25b224909e92fc832a7ac7f462e004c1 *gd87-08-20 t20 The Wheel.flac
05de23c7800a56a73783cc94f0c77c15 *gd87-08-20 t21 Gimme Some Lovin'.flac
4fb9bbf8d5973ab3a0b865da7446962a *gd87-08-20 t22 All Along The Watchtower.flac
03de38262ea288893a8927de054c9c5c *gd87-08-20 t23 Stella Blue.flac
e9b34ceb81afb92e755333dec45f40a6 *gd87-08-20 t24 Sugar Magnolia.flac
80c6e8c2807ef28b13dd40f1e5a24269 *gd87-08-20 t25 Encore Break.flac
2f7789491b8d99f01a177915e5922004 *gd87-08-20 t26 Quinn The Eskimo (The Mighty Quinn).flac

Comments
Add Comment
Other Sources (comments)
unk. mic's > DAT > CDR;... (0) flac16: Set 2 only -... (1) >b>flac16; FOB Schoeps... (0) flac24; Recording... (0) flac16; Recording... (0)
Date User Comment