Browse Collections Artists Sources   Search Dates

Add Show    List Management    Help


Grateful Dead 08/23/87
Calaveras County Fairgrounds, Angels Camp, CA
Comments Add Comment    Source Collectors    Add to Collection    Add to Want List    History
Source # 142157 Other Sources
Entered by Matt Vernon
Checksums ffp , flac-md5
Disc Counts 0 / 0
Media Size Compressed: 803.64 MB (842678272 bytes)
Date Circulated
Date Added
06/08/2018
06/08/2018
Source Summary flac16; Recording Info: UltraMatrix SBD > Beta HiFi Master (Sony Betamax/TDK HS); Transfer Info: Beta HiFi Master (Sony SL-HF66) > Tascam DA-3000 (DSF 1-bit/5.6 MHz) > dBpoweramp > Samplitude Pro X3 Suite > FLAC/24; All Transfers and Mastering By Charlie Miller 
  Archive
Source Information - Download Text | Download Zip
Grateful Dead - August 23, 1987
Calavaras County Fairgrounds - Angel's Camp, CA

Recording Info:
UltraMatrix SBD > Beta HiFi Master (Sony Betamax/TDK HS)

Transfer Info:
Beta HiFi Master (Sony SL-HF66) > Tascam DA-3000 (DSF 1-bit/5.6 MHz) >
dBpoweramp > Samplitude Pro X3 Suite > FLAC/24
(1 DVD FLAC)

All Transfers and Mastering By Charlie Miller
[email protected]
June 7, 2018

Notes:
-- Iko Iko and All Along The Watchtower with Carlos Santana
-- This file set is 16 bit at 44.1

Set 1:
01 - Tuning
02 - Box Of Rain
03 - Jack Straw
04 - West L.A. Fadeaway
05 - Me And My Uncle >
06 - Mexicali Blues
07 - High Time
08 - Walkin' Blues
09 - Iko Iko
10 - All Along The Watchtower

Set 2:
11 - Tuning
12 - Scarlet Begonias >
13 - Fire On The Mountain
14 - Playing In The Band >
15 - Drums >
16 - Space >
17 - I Need A Miracle >
18 - Dear Mr. Fantasy >
19 - Playing In The Band >
20 - Morning Dew

Encore:
21 - Encore Break
22 - Not Fade Away >
23 - Brokedown Palace


SHNTOOL OUTPUT:
    length     expanded size    cdr  WAVE problems  fmt   ratio  filename
     1:44.67       18503228 B   ---   --   ---xx   flac  0.4585  01 Tuning.flac
     4:54.73       52033340 B   ---   --   ---xx   flac  0.5999  02 Box Of Rain.flac
     6:45.16       71479676 B   ---   --   ---xx   flac  0.5870  03 Jack Straw.flac
     9:20.45       98889884 B   ---   --   ---xx   flac  0.5344  04 West LA Fadeaway.flac
     3:13.10       34068764 B   ---   --   ---xx   flac  0.6084  05 Me And My Uncle.flac
     5:11.09       54881612 B   ---   --   ---xx   flac  0.5968  06 Mexicali Blues.flac
     8:42.18       92123180 B   ---   --   ---xx   flac  0.5089  07 High Time.flac
     7:03.15       74652524 B   ---   --   ---xx   flac  0.5304  08 Walkin' Blues.flac
     6:06.24       64618892 B   ---   --   ---xx   flac  0.6128  09 Iko Iko.flac
     6:10.17       65308028 B   ---   --   ---xx   flac  0.6024  10 All Along The Watchtower.flac
     0:50.34        8900012 B   ---   --   ---xx   flac  0.4028  11 Tuning.flac
     8:32.61       90460316 B   ---   --   ---xx   flac  0.5928  12 Scarlet Begonias.flac
    12:11.59      129087212 B   ---   --   ---xx   flac  0.5643  13 Fire On The Mountain.flac
     8:37.05       91210604 B   ---   --   ---xx   flac  0.5774  14 Playing In The Band.flac
     7:03.25       74676044 B   ---   --   ---xx   flac  0.5241  15 Drums.flac
     7:56.23       84020540 B   ---   --   ---xx   flac  0.4398  16 Space.flac
     3:39.48       38744540 B   ---   --   ---xx   flac  0.6255  17 I Need A Miracle.flac
     5:02.31       53345756 B   ---   --   ---xx   flac  0.6077  18 Dear Mr Fantasy.flac
     2:31.60       26777564 B   ---   --   ---xx   flac  0.5775  19 Playing In The Band.flac
    10:34.17      111877628 B   ---   --   ---xx   flac  0.5531  20 Morning Dew.flac
     1:59.51       21111596 B   ---   --   ---xx   flac  0.5224  21 Encore Break.flac
     8:22.00       88552844 B   ---   --   ---xx   flac  0.5761  22 Not Fade Away.flac
     5:42.71       60495836 B   ---   --   ---xx   flac  0.5679  23 Brokedown Palace.flac
   142:16.29     1505819620 B                            0.5596  (23 files)



Show Checksums
ffp
01 Tuning.flac:3a93a5c06d50f120a020fe2f8dd3fa11
02 Box Of Rain.flac:8f5ae6b06759499114aff2cba36e832f
03 Jack Straw.flac:b455c18c6e89d265c05f27a09ff634ca
04 West LA Fadeaway.flac:702d0baa883f647dd894b761276486f3
05 Me And My Uncle.flac:f9959d6f13c05c019df4a6c519d4dc52
06 Mexicali Blues.flac:8c5784318694bd53594ebac2571423e3
07 High Time.flac:707c2b84d5c4910ccc3a9df6d8124013
08 Walkin' Blues.flac:1395b9f37c1340da1e1a465918028555
09 Iko Iko.flac:b11d3085a26d79fa84b12b4cc0c6438d
10 All Along The Watchtower.flac:a308afa70057744899b8c57d935285cb
11 Tuning.flac:e30652dd1ff014765d46a6f9ed20c423
12 Scarlet Begonias.flac:0d0a1f20fabab5ba84312d48666a3d93
13 Fire On The Mountain.flac:7f4dcd14df8fb911ad8b099831e611a4
14 Playing In The Band.flac:cdf57ff3ddd9efd0ea78dfdcaf8cdc7d
15 Drums.flac:79c55cfcd823aee4bed243e7ed1faebf
16 Space.flac:ca1fcdc3fb8ec1489a3de257254c9639
17 I Need A Miracle.flac:c3c993ac0aff08ac57d56dce4c521e69
18 Dear Mr Fantasy.flac:f5b18b0ed8b4d7608cb3166659151745
19 Playing In The Band.flac:01bd0a8d7ed2d3eb15e530ab45b27a59
20 Morning Dew.flac:8fd22055d36ea2b09b4dd11374136454
21 Encore Break.flac:afa56cf6a55775fd68416945a4f57d60
22 Not Fade Away.flac:f14df917d2d87143c65f21888e98fdee
23 Brokedown Palace.flac:0ad2902eeed1a3e4ea5192ea89a8a608
flac-md5
0283386c72dfe7c10dfff3d441f961f5 *01 Tuning.flac
f07610f6dbbe45657b12b8e06ceb2fe6 *02 Box Of Rain.flac
37b6413e38b735a419ed42dc923e4aae *03 Jack Straw.flac
7e5f109865a630633e5d4d67535e87fa *04 West LA Fadeaway.flac
cda9ea29783fb03ec258834ede97a0c0 *05 Me And My Uncle.flac
2a9b1a2c0146c5714bbe91a108b0ecd5 *06 Mexicali Blues.flac
ad86b126e2e94554266b3778aac939fe *07 High Time.flac
d1f36cbcaf41eda0be414690565e05e7 *08 Walkin' Blues.flac
9e40fca3707cee415fdf6f174fbc240a *09 Iko Iko.flac
61ac1aa2450c2eedcbd0022a8520c952 *10 All Along The Watchtower.flac
21282c2e587d276a7f1370316d641a67 *11 Tuning.flac
904ff5fc579c0368a3d8b420fc372505 *12 Scarlet Begonias.flac
bfb5d79dc32abbc07a5ca10d7e614bb2 *13 Fire On The Mountain.flac
1b9d6832072162045fc743df9d3f1239 *14 Playing In The Band.flac
7fe6e68d1ef1bc06b13ff616f4694d72 *15 Drums.flac
db2e7a351142fe0dd4e252dc9a5a9202 *16 Space.flac
81f2dcefb7494f86b911a0f61940104f *17 I Need A Miracle.flac
30909a6c511fb8b47db4dfcfb977984a *18 Dear Mr Fantasy.flac
7c0de886e3f54396df29200a6a63f6b4 *19 Playing In The Band.flac
e6e3c4b3d3985e909aa58af108a9ea23 *20 Morning Dew.flac
919f30d9f6793da30bd1e227d87181aa *21 Encore Break.flac
3803de8a0d509667a04567aecb5bd43d *22 Not Fade Away.flac
0d945c15ecf1c1311d4b3428b92b1178 *23 Brokedown Palace.flac

Comments
Add Comment
Other Sources (comments)
SBD> MC> DAT> CDR> EAC>... (7) SBD>MC>DAT>CDR>EAC>shn -... (1) flac16; Analog... (0) flac24; 2 x AKG C460... (0) flac16; Recording... (4) flac16/48kHz;... (0) flac24; Recording... (0) flac16; Recording... (0) flac16; Source Info:... (0)
Date User Comment