Browse Collections Artists Sources   Search Dates

Add Show    List Management    Help


Grateful Dead 03/04/81
Club Front, San Rafael, CA
Comments Add Comment    Source Collectors    Add to Collection    Add to Want List    History
Source # 142326 Other Sources
Entered by Matt Vernon
Checksums ffp , flac-md5
Disc Counts 0 / 0
Media Size
Date Circulated
Date Added
06/18/2018
06/18/2018
Source Summary flac24; Recording Info: Master Production Disc > Cassette Master (TDK MA90); Transfer Info: Cassette Master (Nakamichi CR-7A) > Tascam DA-3000 (DSF 1-bit/5.6 MHz) > KORG AudioGate 4 > Adobe Audition CC 2015 > Samplitude Pro X3 Suite > FLAC/24; All Transfers and Mastering By Charlie Miller 
  Archive
Source Information - Download Text | Download Zip
Grateful Dead - March 4, 1981
Club Front - San Rafael, CA
Reckoning Outtakes

Recording Info:
Master Production Disc > Cassette Master (TDK MA90)

Transfer Info:
Cassette Master (Nakamichi CR-7A) > Tascam DA-3000 (DSF 1-bit/5.6 MHz) >
KORG AudioGate 4 > Adobe Audition CC 2015 > Samplitude Pro X3 Suite > FLAC/24
(1 Disc FLAC)

All Transfers and Mastering By Charlie Miller
[email protected]
June 16, 2018

Notes:
-- Thanks to Joe B. Jones for the pitch correction settings

Setlist:
01 - Dire Wolf
02 - The Race Is On
03 - Oh Babe, It Ain't No Lie
04 - It Must Have Been The Roses
05 - Dark Hollow
06 - China Doll
07 - I've Been All Around This World
08 - Monkey And The Engineer
09 - Jack-A-Roe
10 - Deep Elem Blues
11 - Cassidy
12 - To Lay Me Down
13 - Rosalie McFall
14 - On The Road Again
15 - Bird Song
16 - Ripple


SHNTOOL OUTPUT:
    length     expanded size    cdr  WAVE problems  fmt   ratio  filename
     3:20.290     115366820 B   cxx   --   ---xx   flac  0.7065  01 Dire Wolf.flac
     2:58.784     102979598 B   cxx   --   ---xx   flac  0.7071  02 The Race Is On.flac
     6:28.921     224018372 B   cxx   --   ---xx   flac  0.7020  03 Oh Babe, It Ain't No Lie.flac
     7:02.175     243172952 B   cxx   --   ---xx   flac  0.6913  04 It Must Have Been The Roses.flac
     3:50.712     132890102 B   cxx   --   ---xx   flac  0.6967  05 Dark Hollow.flac
     5:19.708     184152068 B   cxx   --   ---xx   flac  0.6939  06 China Doll.flac
     4:36.666     159359672 B   cxx   --   ---xx   flac  0.6867  07 I've Been All Around This World.flac
     2:35.473      89552714 B   cxx   --   ---xx   flac  0.7003  08 Monkey And The Engineer.flac
     4:10.940     144541544 B   cxx   --   ---xx   flac  0.6990  09 Jack-A-Roe.flac
     4:54.454     169605686 B   cxx   --   ---xx   flac  0.7034  10 Deep Elem Blues.flac
     4:31.925     156628940 B   cxx   --   ---xx   flac  0.7071  11 Cassidy.flac
     8:59.583     310799780 B   cxx   --   ---xx   flac  0.6963  12 To Lay Me Down.flac
     2:55.655     101177078 B   cxx   --   ---xx   flac  0.7017  13 Rosalie McFall.flac
     3:12.869     111092480 B   cxx   --   ---xx   flac  0.7057  14 On The Road Again.flac
     7:38.093     263861816 B   cxx   --   ---xx   flac  0.6989  15 Bird Song.flac
     4:24.329     152253734 B   cxx   --   ---xx   flac  0.7040  16 Ripple.flac
    77:00.578    2661453356 B                            0.6991  (16 files)


Show Checksums
ffp
01 Dire Wolf.flac:b0aa397237d92332d138c1731ff40a33
02 The Race Is On.flac:b084b07e01d2350c49629ff928d127dd
03 Oh Babe, It Ain't No Lie.flac:d303e6b91418e4c244b3ae9ed00e3182
04 It Must Have Been The Roses.flac:b6f2a978d8dba93082ac53cfcc3b2c54
05 Dark Hollow.flac:a053f6ef89b53a93f664e745fb25c272
06 China Doll.flac:079be12c006c7720264c52c89abb95d4
07 I've Been All Around This World.flac:75c3f49450cf123b22f83100a3c367dd
08 Monkey And The Engineer.flac:ce8769560b74e8653aada3922e3b8406
09 Jack-A-Roe.flac:48a323375dd1134493ad1a0bfd35031f
10 Deep Elem Blues.flac:08d4fa1cb5f05dd626c0c65aec40c452
11 Cassidy.flac:ffcf6d9a863d9e299c452b4119d6016e
12 To Lay Me Down.flac:8ba0b0aa4f9f3bcd65d9d3e45ce3e8f1
13 Rosalie McFall.flac:430320003503cc2d51229438bb436597
14 On The Road Again.flac:4f6c92639fd976750208ff561b0c5d3d
15 Bird Song.flac:65a9983de60c44e38979dd75639b4a85
16 Ripple.flac:ca090aa7740b8535a397e19a20bf1395
flac-md5
8f672e961983888c2e9fee7465b0b657 *01 Dire Wolf.flac
e4b44c146da3234fc2d4af50cb198540 *02 The Race Is On.flac
b04c85cee983e13a98b747ae5242ee16 *03 Oh Babe, It Ain't No Lie.flac
79093efeb68b1ee5a4fd99214670907b *04 It Must Have Been The Roses.flac
c4be127888706ea1cb4756fb8b91143c *05 Dark Hollow.flac
3983496c65f576d65c7cacd8d53ad4b0 *06 China Doll.flac
02cf771c3b0eabd891c3f35971f1b347 *07 I've Been All Around This World.flac
a530d0b72bd24a34850020856acb347f *08 Monkey And The Engineer.flac
516c04cfbb29eafc0063120ccf6d560f *09 Jack-A-Roe.flac
4b22ea2ac7c4f4471f8d7241ee12cbc3 *10 Deep Elem Blues.flac
379c35d9c2f5d1fb89012391d4cc606e *11 Cassidy.flac
ca13b4deea14d046fdc02099ed1a9ad8 *12 To Lay Me Down.flac
d23daf17d719b4f8387922ad03f28180 *13 Rosalie McFall.flac
cd962c97fe6db8eb1f03f218abb59b42 *14 On The Road Again.flac
bb9d49c5529d872f128f086df2dd5f43 *15 Bird Song.flac
3a5de9129795ee3b0c2f88cc5b5965d5 *16 Ripple.flac

Comments
Add Comment
Other Sources (comments)
flac24; Lineage: The... (0) flac16; Recording... (0)
Date User Comment