Browse Collections Artists Sources   Search Dates

Add Show    List Management    Help


Grateful Dead 03/04/81
Club Front, San Rafael, CA
Comments Add Comment    Source Collectors    Add to Collection    Add to Want List    History
Source # 142330 Other Sources
Entered by Matt Vernon
Checksums ffp , flac-md5
Disc Counts 0 / 0
Media Size
Date Circulated
Date Added
06/19/2018
06/19/2018
Source Summary flac24; Lineage: The tape was labelled "2nd generation off master", taken to mean MSR or MSC > Cass1 > Cass2; Transfer: Maxell UD-XLI > Nakamichi DR-8 (Dobly Off) > Audiophile 2496 > Wavelab > CD-Wave > TLH > FLAC1644 
  Archive
Source Information - Download Text | Download Zip
GRATEFUL DEAD
Reckoning
GD Mix

Lineage: The tape was labelled "2nd generation off master",
taken to mean MSR or MSC > Cass1 > Cass2.

Transfer: Maxell UD-XLI > Nakamichi DR-8 (Dobly Off) >
Audiophile 2496 > Wavelab > CD-Wave > TLH > FLAC1644.

Notes: This tape is purportedly the GD's Club Front mix that
was submitted to Arista for the Reckoning LP in 1981. Noticeable
differences are mainly the presence of more audience between
some songs, and the mix is a bit different from the final LP.
Fifteen tracks were released on a single CD in 1988 (with OBIANL
omitted), then remastered again and expanded for the 2006 double
CD reissue. This sounds quite different from the CD versions...

01 Dire Wolf
02 The Race is On
03 Oh Babe It Ain't No Lie
04 It Must Have Been the Roses
05 Dark Hollow
06 China Doll
07 I've Been All Around this World
08 Monkey and the Engineer
09 Jackaroe
10 Deep Elem Blues
11 Cassidy
12 To Lay Me Down
13 Rosalie McFall
14 On the Road Again
15 Birdsong
16 Ripple

    length     expanded size    cdr  WAVE problems  fmt   ratio  filename
     3:34.13       37780220 B   ---   --   ---xx   flac  0.5521  gd1980-reckoning-gdmix-t01.flac
     2:59.12       31603868 B   ---   --   ---xx   flac  0.5617  gd1980-reckoning-gdmix-t02.flac
     6:28.40       68537324 B   ---   --   ---xx   flac  0.5171  gd1980-reckoning-gdmix-t03.flac
     6:58.34       73815212 B   ---   --   ---xx   flac  0.5323  gd1980-reckoning-gdmix-t04.flac
     4:07.45       43676684 B   ---   --   ---xx   flac  0.5304  gd1980-reckoning-gdmix-t05.flac
     5:19.68       56431580 B   ---   --   ---xx   flac  0.5358  gd1980-reckoning-gdmix-t06.flac
     4:13.12       44657468 B   ---   --   ---xx   flac  0.5176  gd1980-reckoning-gdmix-t07.flac
     2:49.01       29813996 B   ---   --   ---xx   flac  0.5373  gd1980-reckoning-gdmix-t08.flac
     4:19.67       45845228 B   ---   --   ---xx   flac  0.5322  gd1980-reckoning-gdmix-t09.flac
     5:13.40       55307324 B   ---   --   ---xx   flac  0.5167  gd1980-reckoning-gdmix-t10.flac
     4:29.40       47545724 B   ---   --   ---xx   flac  0.5163  gd1980-reckoning-gdmix-t11.flac
     8:57.15       94762124 B   ---   --   ---xx   flac  0.4977  gd1980-reckoning-gdmix-t12.flac
     3:01.43       32029580 B   ---   --   ---xx   flac  0.5172  gd1980-reckoning-gdmix-t13.flac
     3:12.19       33913532 B   ---   --   ---xx   flac  0.5295  gd1980-reckoning-gdmix-t14.flac
     7:33.00       79909244 B   ---   --   ---xx   flac  0.4978  gd1980-reckoning-gdmix-t15.flac
     4:38.52       49161548 B   ---   --   ---xx   flac  0.5125  gd1980-reckoning-gdmix-t16.flac
    77:55.51      824790656 B                            0.5214  (16 files)

No errors occured.


Show Checksums
ffp
gd1980-reckoning-gdmix-t01.flac:611d8e489f32bb26363a7edb4cde2438
gd1980-reckoning-gdmix-t02.flac:cb08dd4ff139bde938b526b98a5c13b4
gd1980-reckoning-gdmix-t03.flac:63395bafb1dfba0a714f444f5cb79da6
gd1980-reckoning-gdmix-t04.flac:93ef831ecbf7c67828503a9acc63bd52
gd1980-reckoning-gdmix-t05.flac:12eadc76073bd8d10d0f9362543e915e
gd1980-reckoning-gdmix-t06.flac:922853bdc492303a453fe7cc9d932eca
gd1980-reckoning-gdmix-t07.flac:bd3e87f157cbc93ab7e82170c9fa66e0
gd1980-reckoning-gdmix-t08.flac:ff625e202211044baa62884ed2a703ef
gd1980-reckoning-gdmix-t09.flac:a97c7b88f7f8162a67d1004647483a86
gd1980-reckoning-gdmix-t10.flac:71744cee34e2bcfdb8757c372646b537
gd1980-reckoning-gdmix-t11.flac:b9ff4727c41d05948916407a1c2b1f14
gd1980-reckoning-gdmix-t12.flac:4e13585ae8c075147a7f947d202c00ee
gd1980-reckoning-gdmix-t13.flac:dcf4925ae9abe99352277361019ac4aa
gd1980-reckoning-gdmix-t14.flac:6db73b1edef7e54fdb680304de8a3065
gd1980-reckoning-gdmix-t15.flac:f0b4435bb7e7e371448ebaa4814bfd53
gd1980-reckoning-gdmix-t16.flac:65e07ec2282a05b244ca3751053d31a3
flac-md5
c363836e807647dd1b2e339330a5ecfc *gd1980-reckoning-gdmix-t01.flac
3bc6ea6329ef76773880a9a4b310bd81 *gd1980-reckoning-gdmix-t02.flac
17fc5801772e4dcb4251eb29b5ad57be *gd1980-reckoning-gdmix-t03.flac
40933c766dd38484a97617c24e06eb3d *gd1980-reckoning-gdmix-t04.flac
c6f4f2a55a5c6a794a388b6a291353f4 *gd1980-reckoning-gdmix-t05.flac
f86e17e4ff9aa41a8daaf883e0edcbd9 *gd1980-reckoning-gdmix-t06.flac
cac944ca1b6d1f36e84e4d536868e4b1 *gd1980-reckoning-gdmix-t07.flac
122bb2a06f40ad49f2abd8d3ccd5c247 *gd1980-reckoning-gdmix-t08.flac
33d422ffa73e03e65becf50c56a9ab68 *gd1980-reckoning-gdmix-t09.flac
ecbb0d536ed008f58f58b89f3b3f1007 *gd1980-reckoning-gdmix-t10.flac
6e415c004dfcb6da58150a71b8c79903 *gd1980-reckoning-gdmix-t11.flac
0144dc508c8b6ab85be4deca750af7bc *gd1980-reckoning-gdmix-t12.flac
daefd6edce13b220f070d384d18b4a2a *gd1980-reckoning-gdmix-t13.flac
baf11511c534ae5652238a53e4ec6a12 *gd1980-reckoning-gdmix-t14.flac
2f8655a5851a07a545b7d601a342c5a0 *gd1980-reckoning-gdmix-t15.flac
020e8a089c21d839f76458627a8733fc *gd1980-reckoning-gdmix-t16.flac

Comments
Add Comment
Other Sources (comments)
flac24; Recording... (0) flac16; Recording... (0)
Date User Comment