Browse Collections Artists Sources   Search Dates

Add Show    List Management    Help


Grateful Dead 08/23/87
Calaveras County Fairgrounds, Angels Camp, CA
Comments Add Comment    Source Collectors    Add to Collection    Add to Want List    History
Source # 142332 Other Sources
Entered by Matt Vernon
Checksums ffp , flac-md5
Disc Counts 0 / 0
Media Size
Date Circulated
Date Added
06/20/2018
06/20/2018
Source Summary flac16; Source Info: Oade's Master (FOB) Audience PCM; Schoeps CMC3/MK41mics > Oade M118 > Oade modified Sony PCM-F1; Transfer Info: Master Oade PCM > Sek'd Prodif > Samplitude (.wav 16-bit/44.1k)> hard disk > Adobe Audition 3.0 > TLH flac16 
  Archive
Source Information - Download Text | Download Zip
Grateful Dead
Calavaras County Fairgrounds
Angel's Camp, CA
Sunday August 23rd, 1987

Source Info:
Oade's Master (FOB) Audience PCM; Schoeps CMC3/MK41mics > Oade M118 > Oade modified Sony PCM-F1

Transfer Info:
Master Oade PCM > Sek'd Prodif > Samplitude (.wav 16-bit/44.1k)> hard disk > Adobe Audition 3.0 > TLH flac16

Notes:
- Thanks to the Oade brothers and crew for their master recording(s), as well as the transfer to hard disk
- Thanks to Blake Jacobs for the hard disk
- Thanks to Charlie Miller for coordinating this effort
- "Iko Iko" and "All Along The Watchtower" with Carlos Santana
- Another fine Oade capture

Mastered by Scott Clugston
June 3, 2018

Set One:
t01 - Box Of Rain
t02 - Jack Straw
t03 - West LA Fadeaway
t04 - Me And My Uncle >
t05 - Mexicali Blues
t06 - High Time
t07 - Walkin' Blues
t08 - Iko Iko
t09 - All Along The Watchtower

Set 2:
t10 - Crowd
t11 - Scarlet Begonias >
t12 - Fire On The Mountain
t13 - Playin' In The Band >
t14 - Drums >
t15 - Space >
t16 - I Need A Miracle >
t17 - Dear Mr. Fantasy >
t18 - Playin' In The Band Reprise >
t19 - Morning Dew
t20 - Encore Break
t21 - Not Fade Away >
t22 - Brokedown Palace



    length     expanded size    cdr  WAVE problems  fmt   ratio  filename
     5:02.73       53444540 B   ---   --   ---xx   flac  0.5635  gd87-08-23 t01 Box Of Rain.flac
     6:49.01       72149996 B   ---   --   ---xx   flac  0.5627  gd87-08-23 t02 Jack Straw.flac
     9:13.63       97697420 B   ---   --   ---xx   flac  0.5296  gd87-08-23 t03 West LA Fadeaway.flac
     3:13.34       34125212 B   ---   --   ---xx   flac  0.5814  gd87-08-23 t04 Me & My Uncle.flac
     5:10.32       54759308 B   ---   --   ---xx   flac  0.5715  gd87-08-23 t05 Mexicali Blues.flac
     8:43.22       92308988 B   ---   --   ---xx   flac  0.4784  gd87-08-23 t06 High Time.flac
     6:58.16       73772876 B   ---   --   ---xx   flac  0.5301  gd87-08-23 t07 Walkin' Blues.flac
     6:10.68       65427980 B   ---   --   ---xx   flac  0.6179  gd87-08-23 t08 Iko Iko.flac
     5:16.55       55871804 B   ---   --   ---xx   flac  0.6133  gd87-08-23 t09 All Along The Watchtower.flac
     2:11.53       23233100 B   ---   --   ---xx   flac  0.3800  gd87-08-23 t10 Crowd.flac
     8:31.68       90300380 B   ---   --   ---xx   flac  0.5813  gd87-08-23 t11 Scarlet Begonias.flac
    12:09.42      128694428 B   ---   --   ---xx   flac  0.5604  gd87-08-23 t12 Fire On The Mountain.flac
     8:45.40       92704124 B   ---   --   ---xx   flac  0.5696  gd87-08-23 t13 Playin' In The Band.flac
     8:08.37       86170268 B   ---   --   ---xx   flac  0.4792  gd87-08-23 t14 Drums.flac
     6:26.21       68139836 B   ---   --   ---xx   flac  0.3900  gd87-08-23 t15 Space.flac
     3:52.70       41089484 B   ---   --   ---xx   flac  0.6141  gd87-08-23 t16 I Need A Miracle.flac
     5:02.12       53301068 B   ---   --   ---xx   flac  0.5937  gd87-08-23 t17 Dear Mr. Fantasy.flac
     2:30.72       26629388 B   ---   --   ---xx   flac  0.5556  gd87-08-23 t18 Playin' In The Band Reprise.flac
    10:39.20      112766684 B   ---   --   ---xx   flac  0.5317  gd87-08-23 t19 Morning Dew.flac
     1:55.43       20387180 B   ---   --   ---xx   flac  0.4575  gd87-08-23 t20 Encore Break.flac
     8:14.68       87301580 B   ---   --   ---xx   flac  0.5559  gd87-08-23 t21 Not Fade Away.flac
     5:55.36       62706716 B   ---   --   ---xx   flac  0.5228  gd87-08-23 t22 Brokedown Palace.flac
   141:03.46     1492982360 B                            0.5411  (22 files)


Show Checksums
ffp
gd87-08-23 t01 Box Of Rain.flac:c123e4dd09486b6d035b480ea73a814e
gd87-08-23 t02 Jack Straw.flac:1dc8697e6c796c9b2710b7e27ffe8b0f
gd87-08-23 t03 West LA Fadeaway.flac:950cd3132553ce21a7a1cb4acc86d475
gd87-08-23 t04 Me & My Uncle.flac:2023ee135992d7c02fd29f7b78fded37
gd87-08-23 t05 Mexicali Blues.flac:4fec1a6d312c3e752400f3ddc180e90e
gd87-08-23 t06 High Time.flac:2e860ce9f91cb5c9b7337d7d58bb8172
gd87-08-23 t07 Walkin' Blues.flac:1ebff78976540020aabaf332e8556274
gd87-08-23 t08 Iko Iko.flac:ddb03128af2b93317ad98c3e600bdbe3
gd87-08-23 t09 All Along The Watchtower.flac:4b393eebf0ac575c177c2a932114fec2
gd87-08-23 t10 Crowd.flac:881c2fbd813a153743dd8893741cfd7c
gd87-08-23 t11 Scarlet Begonias.flac:834b5ac9b7c4e6035dde12dad9bf2a4d
gd87-08-23 t12 Fire On The Mountain.flac:bb76233487ef6f009226fd39f62fea42
gd87-08-23 t13 Playin' In The Band.flac:9d39537dab2ba25f47b67233e49e313f
gd87-08-23 t14 Drums.flac:11d243122fcc86adb0c667c33b2ffa23
gd87-08-23 t15 Space.flac:2ab086bf391bb47b8d75de47f8a005e1
gd87-08-23 t16 I Need A Miracle.flac:33fa132c3235994d7e3afd7ca38a9cb2
gd87-08-23 t17 Dear Mr. Fantasy.flac:81cefb92859e26b85eb0f45bd62b6970
gd87-08-23 t18 Playin' In The Band Reprise.flac:6a026cd02e661631e6ca34d0120c42bd
gd87-08-23 t19 Morning Dew.flac:a58d75a62a6baa297128f909d55781b1
gd87-08-23 t20 Encore Break.flac:75f69a96b278c99fc5ce93a7b0cc49a7
gd87-08-23 t21 Not Fade Away.flac:72d79adb3372a93440a5265e488fb894
gd87-08-23 t22 Brokedown Palace.flac:16472fc867b2526899789435b0b460f9
flac-md5
da1f26e2536995fa9d04661001203454 *gd87-08-23 t01 Box Of Rain.flac
7f37fc1a114b82b446c078511b93594c *gd87-08-23 t02 Jack Straw.flac
e40f35c93d089cf694c07be2b6022ed4 *gd87-08-23 t03 West LA Fadeaway.flac
28e5b994a9aaae7856fb65441073bb5d *gd87-08-23 t04 Me & My Uncle.flac
7db36b6786651930b887b7bec370c21a *gd87-08-23 t05 Mexicali Blues.flac
b33c6bc79d39459ce39d7dd2ffc51595 *gd87-08-23 t06 High Time.flac
4908eae452495b9dd7d2176cbd56d866 *gd87-08-23 t07 Walkin' Blues.flac
e14134858048c61f6839109124f96ea8 *gd87-08-23 t08 Iko Iko.flac
079c7d7a79f7db408a1f79557781a13c *gd87-08-23 t09 All Along The Watchtower.flac
35fcc54ec7aeaa9c39d9bbbc5520c598 *gd87-08-23 t10 Crowd.flac
8c1df5fdb5a4972286b7c854e4028e26 *gd87-08-23 t11 Scarlet Begonias.flac
9b4f32579e04911cb9f891e4f1184aea *gd87-08-23 t12 Fire On The Mountain.flac
2ea44508beccb36aa249fd4a9ce0e54d *gd87-08-23 t13 Playin' In The Band.flac
6be91eb11290b158b54e3501ea0fc5a0 *gd87-08-23 t14 Drums.flac
c2045cae16c766f818494babeb8b5f3f *gd87-08-23 t15 Space.flac
d575cfd8fbbaace98c3dc1a06143da82 *gd87-08-23 t16 I Need A Miracle.flac
f508141c9ab220c023d5cfab185ab7ff *gd87-08-23 t17 Dear Mr. Fantasy.flac
e8cf9d6b2b99c39a0fcd3a077d7a5703 *gd87-08-23 t18 Playin' In The Band Reprise.flac
dd553871b24dd69913aa6c53080b0180 *gd87-08-23 t19 Morning Dew.flac
3fcd0c5f1f72a8dd523eeefd68d19b27 *gd87-08-23 t20 Encore Break.flac
2cba12656191251d263ef610444e303b *gd87-08-23 t21 Not Fade Away.flac
403bb6f63fb7b339772b9d15318e4d02 *gd87-08-23 t22 Brokedown Palace.flac

Comments
Add Comment
Other Sources (comments)
SBD> MC> DAT> CDR> EAC>... (7) SBD>MC>DAT>CDR>EAC>shn -... (1) flac16; Analog... (0) flac24; 2 x AKG C460... (0) flac16; Recording... (4) flac16/48kHz;... (0) flac24; Recording... (0) flac16; Recording... (0) flac16; Recording... (0)
Date User Comment