Browse Collections Artists Sources   Search Dates

Add Show    List Management    Help


Grateful Dead 10/02/87
Shoreline Amphitheatre, Mountain View, CA
Comments Add Comment    Source Collectors    Add to Collection    Add to Want List    History
Source # 142333 Other Sources
Entered by Matt Vernon
Checksums ffp , flac-md5
Disc Counts 0 / 0
Media Size
Date Circulated
Date Added
06/20/2018
06/20/2018
Source Summary flac16; Source Info: Oade's Master (FOB) Audience PCM; Schoeps CMC4/MK41mics > Oade M118 > Oade modified Sony PCM-F1; Transfer Info: Master Oade PCM > Sek'd Prodif > Samplitude (.wav 16-bit/44.1k)> hard disk > Adobe Audition 3.0 > TLH flac16 
  Archive
Source Information - Download Text | Download Zip
Grateful Dead
Shoreline Amphitheatre
Mountain View, CA
Friday October 2nd, 1987

Source Info:
Oade's Master (FOB) Audience PCM; Schoeps CMC4/MK41mics > Oade M118 > Oade modified Sony PCM-F1

Transfer Info:
Master Oade PCM > Sek'd Prodif > Samplitude (.wav 16-bit/44.1k)> hard disk > Adobe Audition 3.0 > TLH flac16

Notes:
- Thanks to the Oade brothers and crew for their master recording(s), as well as the transfer to hard disk
- Thanks to Blake Jacobs for the hard disk
- Thanks to Charlie Miller for coordinating this effort
- Another fine Oade capture

Mastered by Scott Clugston
June 15, 2018

Set One:
t01 - Crowd
t02 - Cold Rain & Snow
t03 - Little Red Rooster
t04 - Stagger Lee
t05 - Me And My Uncle >
t06 - Mexicali Blues
t07 - Row Jimmy
t08 - Far From Me
t09 - Let It Grow

Set Two:
t10 - China Cat Sunflower >
t11 - I Know You Rider
t12 - Man Smart (Woman Smarter)
t13 - Ship Of Fools
t14 - Truckin' >
t15 - Drums >
t16 - Space >
t17 - The Wheel >
t18 - Gimme Some Lovin' >
t19 - All Along The Watchtower
t20 - Don't Ease Me In
t21 - Encore Break
t22 - Black Muddy River



    length     expanded size    cdr  WAVE problems  fmt   ratio  filename
     1:39.63       17611820 B   ---   --   ---xx   flac  0.4600  gd87-10-02 t01 Crowd.flac
     6:59.65       74064524 B   ---   --   ---xx   flac  0.6089  gd87-10-02 t02 Cold Rain & Snow.flac
     8:55.74       94548092 B   ---   --   ---xx   flac  0.6040  gd87-10-02 t03 Little Red Rooster.flac
     6:49.17       72187628 B   ---   --   ---xx   flac  0.5652  gd87-10-02 t04 Stagger Lee.flac
     3:05.55       32763404 B   ---   --   ---xx   flac  0.6242  gd87-10-02 t05 Me & My Uncle.flac
     5:56.41       62894876 B   ---   --   ---xx   flac  0.5881  gd87-10-02 t06 Mexicali Blues.flac
    10:43.33      113502860 B   ---   --   ---xx   flac  0.5502  gd87-10-02 t07 Row Jimmy.flac
     4:29.46       47559836 B   ---   --   ---xx   flac  0.6137  gd87-10-02 t08 Far From Me.flac
    13:10.55      139485404 B   ---   --   ---xx   flac  0.6105  gd87-10-02 t09 Let It Grow.flac
     6:14.25       66032444 B   ---   --   ---xx   flac  0.5902  gd87-10-02 t10 China Cat Sunflower.flac
     5:15.66       55721276 B   ---   --   ---xx   flac  0.6050  gd87-10-02 t11 I Know You Rider.flac
     8:03.32       85276508 B   ---   --   ---xx   flac  0.5996  gd87-10-02 t12 Man Smart (Woman Smarter).flac
     7:56.54       84093452 B   ---   --   ---xx   flac  0.5495  gd87-10-02 t13 Ship Of Fools.flac
     9:37.44      101886332 B   ---   --   ---xx   flac  0.5873  gd87-10-02 t14 Truckin'.flac
     8:25.45       89187884 B   ---   --   ---xx   flac  0.4951  gd87-10-02 t15 Drums.flac
     7:24.43       78422780 B   ---   --   ---xx   flac  0.4575  gd87-10-02 t16 Space.flac
     4:57.31       52463756 B   ---   --   ---xx   flac  0.5569  gd87-10-02 t17 The Wheel.flac
     4:55.67       52195628 B   ---   --   ---xx   flac  0.6104  gd87-10-02 t18 Gimme Some Lovin'.flac
     6:21.55       67337804 B   ---   --   ---xx   flac  0.6268  gd87-10-02 t19 All Along The Watchtower.flac
     3:40.48       38920940 B   ---   --   ---xx   flac  0.6027  gd87-10-02 t20 Don't Ease Me In.flac
     2:43.00       28753244 B   ---   --   ---xx   flac  0.4973  gd87-10-02 t21 Encore Break.flac
     6:19.24       66912092 B   ---   --   ---xx   flac  0.5492  gd87-10-02 t22 Black Muddy River.flac
   143:47.08     1521822584 B                            0.5737  (22 files)


Show Checksums
ffp
gd87-10-02 t01 Crowd.flac:9776448310f8a820ca1b83c501110db6
gd87-10-02 t02 Cold Rain & Snow.flac:8c8942da534b8d11de1d301bf4d77876
gd87-10-02 t03 Little Red Rooster.flac:99cd250576251c807177a8edb6e18c48
gd87-10-02 t04 Stagger Lee.flac:84859469a96415aa1cc2923c72a4185d
gd87-10-02 t05 Me & My Uncle.flac:ef951070b116c5617315165d78d8a56f
gd87-10-02 t06 Mexicali Blues.flac:6df3ff5173b0288c4d0450427701fe2b
gd87-10-02 t07 Row Jimmy.flac:16cae48a413d6afa5b5e945bc9e9a72b
gd87-10-02 t08 Far From Me.flac:3abeca76eaafa307eddd7487cc52436c
gd87-10-02 t09 Let It Grow.flac:5c397e789f6bc9b2f3ff8d4a18365d3d
gd87-10-02 t10 China Cat Sunflower.flac:31e0dc350be68a5f4d80e50ce85a36d8
gd87-10-02 t11 I Know You Rider.flac:a58b19529c2088a62633f28239b8fdcf
gd87-10-02 t12 Man Smart (Woman Smarter).flac:4ef405621263eb9f15c3dd0b4b0f6ad5
gd87-10-02 t13 Ship Of Fools.flac:9dc9f8f01ec99922ca4eaf70c92f6646
gd87-10-02 t14 Truckin'.flac:6a3a41b7ab6d2009de19bafcfe0d651c
gd87-10-02 t15 Drums.flac:70651e608ff86cf615724ab621c27ef6
gd87-10-02 t16 Space.flac:be1c1f7f9bb0628c725f94cd7464bad4
gd87-10-02 t17 The Wheel.flac:229e42eb193f7ae7b2e9879ba5fab426
gd87-10-02 t18 Gimme Some Lovin'.flac:4fedc4c610b35a6588926ad289fd4b18
gd87-10-02 t19 All Along The Watchtower.flac:1c7d2d2ac9ab85043e5fafb70360ffed
gd87-10-02 t20 Don't Ease Me In.flac:b6ea16cedc39064bcfdbd7448dc61ed5
gd87-10-02 t21 Encore Break.flac:1a376cf9c2dbe5dae5769700443d1bf2
gd87-10-02 t22 Black Muddy River.flac:5e1b0d2df783a988080984e9096f501d
flac-md5
bd7f2fb9705d64c030e15d9e0d1c5ccd *gd87-10-02 t01 Crowd.flac
04038df826800eeb6df3ef97e7dec568 *gd87-10-02 t02 Cold Rain & Snow.flac
2a31ec36949a5cf627b9ddf7d36cfdae *gd87-10-02 t03 Little Red Rooster.flac
d3b59252ceadf6229f131cfaf89fcb2d *gd87-10-02 t04 Stagger Lee.flac
03318fe04a1faa41e8de9b3f046d6fdb *gd87-10-02 t05 Me & My Uncle.flac
6f7b654759baeb38f7bb87b827316205 *gd87-10-02 t06 Mexicali Blues.flac
2d01215c4008eec9cdce2ee84eed9ad0 *gd87-10-02 t07 Row Jimmy.flac
3d9e3eb89f3e0b4637d6e08c86640783 *gd87-10-02 t08 Far From Me.flac
47b7526a926220ba156a420bef1d1cd2 *gd87-10-02 t09 Let It Grow.flac
92776fe204fba0cb31a9e68bc1ae3820 *gd87-10-02 t10 China Cat Sunflower.flac
d410743848ef174e1f746ca02b69f032 *gd87-10-02 t11 I Know You Rider.flac
d09cbfadf881b16a90761a0a30ac4ad4 *gd87-10-02 t12 Man Smart (Woman Smarter).flac
bed92bbc72b66b5d4288a2e1733df0f5 *gd87-10-02 t13 Ship Of Fools.flac
16af684e15dbffdab56653c7322a0354 *gd87-10-02 t14 Truckin'.flac
7fed81628110dba9ef3f5f0c0d0a7792 *gd87-10-02 t15 Drums.flac
28b6bf7a7eee299e655cc09cca83af73 *gd87-10-02 t16 Space.flac
3c7541fa29fb2274a05326e4d6133937 *gd87-10-02 t17 The Wheel.flac
851a83456df0265bc8b605ab93842cd3 *gd87-10-02 t18 Gimme Some Lovin'.flac
716f8997d573df31c5c4961ddda186d4 *gd87-10-02 t19 All Along The Watchtower.flac
ae863b797db324883565713a6a3ef35b *gd87-10-02 t20 Don't Ease Me In.flac
c3c9f5b0b4a1b1ad1849a77ef3e0455f *gd87-10-02 t21 Encore Break.flac
9b64d79490efada1f4c8806d1cfd2fc8 *gd87-10-02 t22 Black Muddy River.flac

Comments
Add Comment
Other Sources (comments)
SBD> CM> DAT> WAV (Ego Sys... (0) Jay Ashley (Bertha)... (0) SBD> CM> DAT> WAV> CD> EAC>... (0) flac16; Recording... (0) flac16; Hat Mounted... (1) flac16; Recording... (0) flac24; Recording... (0) flac16; Recording... (0)
Date User Comment