Browse Collections Artists Sources   Search Dates

Add Show    List Management    Help


Grateful Dead 10/04/87
Shoreline Amphitheatre, Mountain View, CA
Comments Add Comment    Source Collectors    Add to Collection    Add to Want List    History
Source # 142334 Other Sources
Entered by Matt Vernon
Checksums ffp , flac-md5
Disc Counts 0 / 0
Media Size
Date Circulated
Date Added
06/20/2018
06/20/2018
Source Summary flac16; Source Info: Oade's Master (FOB) Audience PCM; Schoeps CMC4/MK41mics > Oade M118 > Oade modified Sony PCM-F1; Transfer Info: Master Oade PCM > Sek'd Prodif > Samplitude (.wav 16-bit/44.1k)> hard disk > Adobe Audition 3.0 > TLH flac16 
  Archive
Source Information - Download Text | Download Zip
Grateful Dead
Shoreline Amphitheatre
Mountain View, CA
Sunday October 4th, 1987

Source Info:
Oade's Master (FOB) Audience PCM; Schoeps CMC4/MK41mics > Oade M118 > Oade modified Sony PCM-F1

Transfer Info:
Master Oade PCM > Sek'd Prodif > Samplitude (.wav 16-bit/44.1k)> hard disk > Adobe Audition 3.0 > TLH flac16

Notes:
- Thanks to the Oade brothers and crew for their master recording(s), as well as the transfer to hard disk
- Thanks to Blake Jacobs for the hard disk
- Thanks to Charlie Miller for coordinating this effort
- Another fine Oade capture

Mastered by Scott Clugston
June 14, 2018

Set One:
t01 - Crowd
t02 - Jack Straw
t03 - When Push Comes To Shove
t04 - Walkin' Blues
t05 - High Time
t06 - Desolation Row
t07 - Iko Iko

Set Two:
t08 - Hell In A Bucket
t09 - Devil With The Blue Dress On >
t10 - Good Golly Miss Molly >
t11 - Devil With The Blue Dress On
t12 - Estimated Prophet >
t13 - Eyes Of The World >
t14 - Drums >
t15 - Space >
t16 - I Need A Miracle >
t17 - Dear Mr. Fantasy >
t18 - Wharf Rat >
t19 - Not Fade Away
t20 - Not Fade Away Chant
t21 - Touch Of Grey >
t22 - Brokedown Palace



    length     expanded size    cdr  WAVE problems  fmt   ratio  filename
     0:35.61        6317516 B   ---   --   ---xx   flac  0.5147  gd87-10-04 t01 Crowd.flac
     6:07.15       64774124 B   ---   --   ---xx   flac  0.6410  gd87-10-04 t02 Jack Straw.flac
     5:46.18       61076780 B   ---   --   ---xx   flac  0.5951  gd87-10-04 t03 When Push Comes To Shove.flac
     7:59.42       84594428 B   ---   --   ---xx   flac  0.6052  gd87-10-04 t04 Walkin' Blues.flac
     8:57.56       94858556 B   ---   --   ---xx   flac  0.5379  gd87-10-04 t05 High Time.flac
    13:00.56      137723756 B   ---   --   ---xx   flac  0.5997  gd87-10-04 t06 Desolation Row.flac
     5:24.29       57221852 B   ---   --   ---xx   flac  0.6507  gd87-10-04 t07 Iko Iko.flac
     6:32.73       69320540 B   ---   --   ---xx   flac  0.6534  gd87-10-04 t08 Hell In A Bucket.flac
     2:49.06       29825756 B   ---   --   ---xx   flac  0.6570  gd87-10-04 t09 Devil With The Blue Dress On.flac
     0:44.40        7855724 B   ---   --   ---xx   flac  0.6774  gd87-10-04 t10 Good Golly Miss Molly.flac
     1:48.66       19206476 B   ---   --   ---xx   flac  0.6353  gd87-10-04 t11 Devil With The Blue Dress On.flac
    10:51.22      114888188 B   ---   --   ---xx   flac  0.6186  gd87-10-04 t12 Estimated Prophet.flac
     6:18.55       66808604 B   ---   --   ---xx   flac  0.6219  gd87-10-04 t13 Eyes Of The World.flac
     7:14.72       76726988 B   ---   --   ---xx   flac  0.4953  gd87-10-04 t14 Drums.flac
     6:56.57       73516508 B   ---   --   ---xx   flac  0.4649  gd87-10-04 t15 Space.flac
     3:43.24       39393692 B   ---   --   ---xx   flac  0.6180  gd87-10-04 t16 I Need A Miracle.flac
     4:57.45       52496684 B   ---   --   ---xx   flac  0.6230  gd87-10-04 t17 Dear Mr. Fantasy.flac
     8:19.39       88115372 B   ---   --   ---xx   flac  0.5663  gd87-10-04 t18 Wharf Rat.flac
     7:04.17       74833628 B   ---   --   ---xx   flac  0.6181  gd87-10-04 t19 Not Fade Away.flac
     3:15.20       34445084 B   ---   --   ---xx   flac  0.5136  gd87-10-04 t20 Not fade Away Chant.flac
     6:18.27       66742748 B   ---   --   ---xx   flac  0.6429  gd87-10-04 t21 Touch Of Grey.flac
     5:26.39       57598172 B   ---   --   ---xx   flac  0.5523  gd87-10-04 t22 Brokedown Palace.flac
   130:13.54     1378341176 B                            0.5920  (22 files)


Show Checksums
ffp
gd87-10-04 t01 Crowd.flac:e07021e45e9f27eec815df1e454e5dbb
gd87-10-04 t02 Jack Straw.flac:015e2fb867708c9126f96d07a40e65cc
gd87-10-04 t03 When Push Comes To Shove.flac:b058c0defe299e831dddd83f61b7ddd4
gd87-10-04 t04 Walkin' Blues.flac:5c902789d1033d51149cf5f999475aeb
gd87-10-04 t05 High Time.flac:9f5a9b8219ab3caa357d0ccaaffa69bb
gd87-10-04 t06 Desolation Row.flac:797c419ee70c304165ac7f3c2ca5de8b
gd87-10-04 t07 Iko Iko.flac:98fb73fc1727134022b625c39ec9403b
gd87-10-04 t08 Hell In A Bucket.flac:e3469e08bc7a8d0b3092f32a64262337
gd87-10-04 t09 Devil With The Blue Dress On.flac:d6fd492645aa3b40a41b53b20a37d985
gd87-10-04 t10 Good Golly Miss Molly.flac:aac3e1123c3c519790b625db3096e9d6
gd87-10-04 t11 Devil With The Blue Dress On.flac:961d13d013f4701419b38c93c43727b0
gd87-10-04 t12 Estimated Prophet.flac:077264bf558bc884342b75da80f3588d
gd87-10-04 t13 Eyes Of The World.flac:c26f37da18f45f9e5a32546dbb4da5bf
gd87-10-04 t14 Drums.flac:9f3152a57ed690c74dde0684432ceb2a
gd87-10-04 t15 Space.flac:cd4ae32738ef57c5253f5f97d468da82
gd87-10-04 t16 I Need A Miracle.flac:c1aa6ff05de838c1c39cbf3ea48544a8
gd87-10-04 t17 Dear Mr. Fantasy.flac:ce385a47f801901feb421ef285b60d44
gd87-10-04 t18 Wharf Rat.flac:745d6d665b16e8a2fd407ce66610fc21
gd87-10-04 t19 Not Fade Away.flac:9f3ecfd39ce277c678d32f936458a891
gd87-10-04 t20 Not fade Away Chant.flac:7050e794844b52d38ce43c6469ba4fe7
gd87-10-04 t21 Touch Of Grey.flac:0fbf412281c3c9c998928704f2921d1e
gd87-10-04 t22 Brokedown Palace.flac:b2b8007dba95e1a03627ba77452f9a01
flac-md5
60fbc5d6b7fe46c078d4fc88f1027a0c *gd87-10-04 t01 Crowd.flac
c17942c4a53dcd8e5a81856576fd113f *gd87-10-04 t02 Jack Straw.flac
d3f5904e75322b474077962d2213790c *gd87-10-04 t03 When Push Comes To Shove.flac
a213f71e059903b14c15e82f9d461346 *gd87-10-04 t04 Walkin' Blues.flac
bf539b2bfa7b546093716be42239ac92 *gd87-10-04 t05 High Time.flac
a34b75888e4a75b7c886fd7827b0c41b *gd87-10-04 t06 Desolation Row.flac
8d25df3a28cc4139a817803c6b6aef2f *gd87-10-04 t07 Iko Iko.flac
bc42be355047a80b8f4e863cad00d41e *gd87-10-04 t08 Hell In A Bucket.flac
237edc9d9d92bd7c51c6e88e808e6bd7 *gd87-10-04 t09 Devil With The Blue Dress On.flac
54f9769d09b4a5ff6dfdecb875f37368 *gd87-10-04 t10 Good Golly Miss Molly.flac
ecc6e86f62dd29af9ebc399e2c0980cd *gd87-10-04 t11 Devil With The Blue Dress On.flac
d25d6503749e528ff004d563c567a1df *gd87-10-04 t12 Estimated Prophet.flac
2fb60909abb319fc0dd8060af95da43b *gd87-10-04 t13 Eyes Of The World.flac
3f086e4f4c164f95d2868e2609de90c9 *gd87-10-04 t14 Drums.flac
bd7a1d3052d05e30dd51de2df56adff8 *gd87-10-04 t15 Space.flac
0552c7dbc0efc7e679098f5dac732a50 *gd87-10-04 t16 I Need A Miracle.flac
6fe395b0de627a78a3f23af6f5d0dd74 *gd87-10-04 t17 Dear Mr. Fantasy.flac
a864de5da70742211f3306dc2150e4b6 *gd87-10-04 t18 Wharf Rat.flac
f7c54c379ce78f9760aba8d5e77c542b *gd87-10-04 t19 Not Fade Away.flac
49e53c3188a3582dec07573e08e686b8 *gd87-10-04 t20 Not fade Away Chant.flac
76b4ec15dbafd1282429b556d0e5b7d3 *gd87-10-04 t21 Touch Of Grey.flac
58119fd1f62ff5d38418e387f4907691 *gd87-10-04 t22 Brokedown Palace.flac

Comments
Add Comment
Other Sources (comments)
Master> DAT> CDr; via Mike Lai (2) Jay Ashley (Bertha)... (0) SBD> CM> DAT> CD> EAC> SHN... (0) flac16; Source:... (4) flac16; Recording... (0) flac16; 1st gen... (0) flac16; Source:... (0) flac16; Recording... (0)
Date User Comment