Browse Collections Artists Sources   Search Dates

Add Show    List Management    Help


Grateful Dead 10/01/89
Shoreline Amphitheatre, Mountain View, CA
Comments Add Comment    Source Collectors    Add to Collection    Add to Want List    History
Source # 142347 Other Sources
Entered by Matt Vernon
Checksums ffp , flac-md5
Disc Counts 0 / 0
Media Size
Date Circulated
Date Added
06/21/2018
06/21/2018
Source Summary flac24; Recording Info: UltraMatrix SBD > Cassette Master (TDK MA-XG90); Transfer Info: Cassette Master (Nakamichi CR-7A) > Tascam DA-3000 (DSF 1-bit/5.6 MHz) > KORG AudioGate 4 > Adobe Audition CC2015 > Samplitude Pro X3 Suite > FLAC/24; All Transfers and Mastering by Charlie Miller 
  Archive
Source Information - Download Text | Download Zip
Grateful Dead - October 1, 1989
Shoreline Amphitheatre - Mountain View, CA

Recording Info:
UltraMatrix SBD > Cassette Master (TDK MA-XG90)

Transfer Info:
Cassette Master (Nakamichi CR-7A) > Tascam DA-3000 (DSF 1-bit/5.6 MHz) >
KORG AudioGate 4 > Adobe Audition CC2015 > Samplitude Pro X3 Suite > FLAC/24
(1 DVD FLAC)

All Transfers and Mastering by Charlie Miller
[email protected]
June 20, 2018

Notes:
-- Two sets of masters were used to make this show complete

Set 1:
01 - Tuning
02 - Jack Straw
03 - Ramble On Rose
04 - Walkin' Blues
05 - Built To Last
06 - When I Paint My Masterpiece
07 - Just A Little Light
08 - Cassidy >
09 - Don't Ease Me In

Set 2:
10 - Tuning
11 - Hell In A Bucket >
12 - Scarlet Begonias >
13 - Man Smart (Woman Smarter)
14 - He's Gone >
15 - Drums >
16 - Space >
17 - The Other One >
18 - Wharf Rat >
19 - Turn On Your Lovelight

Encore:
20 - Encore Break
21 - Knockin' On Heaven's Door


SHNTOOL OUTPUT:
    length     expanded size    cdr  WAVE problems  fmt   ratio  filename
     2:24.679      83334884 B   cxx   --   ---xx   flac  0.6593  01 Tuning.flac
     7:44.898     267781178 B   cxx   --   ---xx   flac  0.6817  02 Jack Straw.flac
     9:24.684     325257866 B   cxx   --   ---xx   flac  0.6757  03 Ramble On Rose.flac
     8:04.400     279014606 B   cxx   --   ---xx   flac  0.6602  04 Walkin' Blues.flac
     6:23.077     220652108 B   cxx   --   ---xx   flac  0.6782  05 Built To Last.flac
     7:02.116     243138644 B   cxx   --   ---xx   flac  0.6653  06 When I Paint My Masterpiece.flac
     5:56.410     205292276 B   cxx   --   ---xx   flac  0.6764  07 Just A Little Light.flac
     6:59.238     241481156 B   cxx   --   ---xx   flac  0.6925  08 Cassidy.flac
     4:02.275     139550378 B   cxx   --   ---xx   flac  0.6883  09 Don't Ease Me In.flac
     2:14.524      77485802 B   cxx   --   ---xx   flac  0.6446  10 Tuning.flac
     6:29.634     224429174 B   cxx   --   ---xx   flac  0.6901  11 Hell In A Bucket.flac
    10:51.112     375040718 B   cxx   --   ---xx   flac  0.6863  12 Scarlet Beginias.flac
     7:51.541     271607504 B   cxx   --   ---xx   flac  0.6780  13 Man Smart (Woman Smarter).flac
    13:10.858     455534420 B   cxx   --   ---xx   flac  0.6724  14 He's Gone.flac
     6:05.773     210685160 B   cxx   --   ---xx   flac  0.6520  15 Drums.flac
    11:59.216     414268274 B   cxx   --   ---xx   flac  0.6343  16 Space.flac
     8:33.408     295722962 B   cxx   --   ---xx   flac  0.6755  17 The Other One.flac
    10:23.906     359370068 B   cxx   --   ---xx   flac  0.6736  18 Wharf Rat.flac
     7:31.967     260332772 B   cxx   --   ---xx   flac  0.6807  19 Turn On Your Lovelight.flac
     3:44.082     129071276 B   cxx   --   ---xx   flac  0.6378  20 Encore Break.flac
     9:33.532     330354482 B   cxx   --   ---xx   flac  0.6562  21 Knockin' On Heaven's Door.flac
   156:31.328    5409405708 B                            0.6703  (21 files)


Show Checksums
ffp
01 Tuning.flac:66fadadc87dc76d5f48eecb7d3ebf555
02 Jack Straw.flac:d969ab66261532616845babe40c43f20
03 Ramble On Rose.flac:16d1a93269d9ef29af8843d38b8de88a
04 Walkin' Blues.flac:c507fc4d72aedf3e5951e05d44fb45fd
05 Built To Last.flac:6b4043ef1b6294ca9932a6b36402d78d
06 When I Paint My Masterpiece.flac:6a5fc0c3e447b35b21b01b1e301549d5
07 Just A Little Light.flac:9a544f7af003f2efca41d8b77921b4df
08 Cassidy.flac:852b08d1787d3d4cf233d96fa3b56ac6
09 Don't Ease Me In.flac:66e78a4041bea01c61aeb99a0730bcf6
10 Tuning.flac:7fc8358badb608e5a42ab22fe2beef57
11 Hell In A Bucket.flac:f7fe00cff7a610b9aa6411e29b749d14
12 Scarlet Beginias.flac:8612f26f0ad054e7cd39816f95f77f6f
13 Man Smart (Woman Smarter).flac:0ab4e961e2d535c9437ef5c422fc6e1d
14 He's Gone.flac:abb342eb465719a46ec2503e3b37e826
15 Drums.flac:f9f8f8f17046975a8c36561f00cb4ac6
16 Space.flac:6a1774f54cf1907ee1b5be7ff5e71c9b
17 The Other One.flac:f668b4da899249d2148cbb3d5447bd12
18 Wharf Rat.flac:d606a1453c43a33397793bb1816ae574
19 Turn On Your Lovelight.flac:5586fe5c8205efc801909a296f4dfcf4
20 Encore Break.flac:f36b030eac943533f6cf15bbc10fb531
21 Knockin' On Heaven's Door.flac:27c64e5e5c5681dc05fa290e0e980886
flac-md5
59370426f4a2f25c078caefe3954e1a9 *01 Tuning.flac
b933d5a3020731db536f433003047875 *02 Jack Straw.flac
73a95b608c03e3702a39ea7fedc21c3c *03 Ramble On Rose.flac
905035fe4e1eb5109cd5e19dcbac5805 *04 Walkin' Blues.flac
0c6625e24d69ecb440995c75c485e88b *05 Built To Last.flac
452fc3b1a43916a418d336c7ee160723 *06 When I Paint My Masterpiece.flac
5fd7b7061f2062cd56d9831ca9d76ed5 *07 Just A Little Light.flac
30dd6b799fc800b25925b8cf2ee5e2cd *08 Cassidy.flac
3db0da472333842d6c3ecb13fbb63925 *09 Don't Ease Me In.flac
4852fc4b2c221ad4877a5c48b50e3ec9 *10 Tuning.flac
2fab02c172abf93c7621ec0c999dbb81 *11 Hell In A Bucket.flac
4985d258904463df71174628cac18b35 *12 Scarlet Beginias.flac
20e406d799501aadf33bba9913d360bf *13 Man Smart (Woman Smarter).flac
cebd304fec469e08a80b504c9f15aa23 *14 He's Gone.flac
e5217716b5e5a9cc6944c8b3e588654c *15 Drums.flac
682a5626a98c8f7e10eb6b0f21b6fe8b *16 Space.flac
137a00173b9a5dfdf7f9f7cc360156bd *17 The Other One.flac
b382f6f0af2fa4410699ba48655912bd *18 Wharf Rat.flac
30dd83bf4e66c0df12d83e446cd6d7c7 *19 Turn On Your Lovelight.flac
c1a681b99035af1d76dc61f419208c55 *20 Encore Break.flac
6e4045f869bd10415d3619147e067be6 *21 Knockin' On Heaven's Door.flac

Comments
Add Comment
Other Sources (comments)
AUD>MC>C>CDR; Seeded to... (1) flac16; Unknown SBD... (0) flac16; Recording... (1) flac16; Set 2... (0) flac16; Recording... (0) flac16/48kHz; Source... (0) flac16; Recording... (0)
Date User Comment