Browse Collections Artists Sources   Search Dates

Add Show    List Management    Help


Grateful Dead 04/01/94
The Omni, Atlanta, GA
Comments Add Comment    Source Collectors    Add to Collection    Add to Want List    History
Source # 142364 Other Sources
Entered by Matt Vernon
Checksums ffp , flac-md5
Disc Counts 0 / 0
Media Size
Uncompressed: 1.63 GB (1751363584 bytes)
Date Circulated
Date Added
06/24/2018
06/24/2018
Source Summary flac16; Source: SBD > dat (44.1k) - Provided by Rich Gastwirt; Transfer: Dat > Sony PCM-R500 > Tascam DA-3000 > wav 16/44.1 - Transferred by Charlie Miller; Lineage: wav 16/48> iZotope RX6 Advanced > iZotope Ozone 5 Advanced > CD Wave > Flac16; edited and mastered SIRMick June 2018 
  Archive
Source Information - Download Text | Download Zip
Grateful Dead
The Omni
Atlanta, GA
04/01/1994


Source: SBD > dat (44.1k) - Provided by Rich Gastwirt
Transfer: Dat > Sony PCM-R500 > Tascam DA-3000 > wav 16/44.1 - Transferred by Charlie Miller
Lineage: wav 16/48> iZotope RX6 Advanced > iZotope Ozone 5 Advanced > CD Wave > Flac16



Set I

01   tuning
02   Picasso Moon >
03   Deal
04   Wang Dang Doodle
05   Dire Wolf
06   Black Throated Wind
07   Bird Song


Set II

01   tuning
02   China Cat Sunflower >
03   I Know You Rider
04   Box Of Rain
05   Estimated Prophet >
06   He's Gone >
07   That Would Be Something >
08   Drums >
09   Space >
10   The Other One >
11   Wharf Rat >
12   Turn On Your Love Light

encore

13   Brokedown Palace


Notes:

- All sbds in circulation are missing "Brokedown"  This source came with an unknown aud version which I have replaced with a pitch adjusted shnid 119748 because it sounds better - Thank you Chris Cage.


Thanks to Rich Gastwirt for providing this source.

Thanks to Charlie Miller for cranking out yet another transfer.


edited and mastered
SIRMick
June 2018


shntool output:

    length     expanded size    cdr  WAVE problems  fmt   ratio  filename
     0:54.63        9673820 B   ---   --   ---xx   flac  0.3661  gd1994-04-01s1t01.flac
     6:56.17       73422428 B   ---   --   ---xx   flac  0.6052  gd1994-04-01s1t02.flac
    11:04.60      117270764 B   ---   --   ---xx   flac  0.5757  gd1994-04-01s1t03.flac
     8:41.68       92064380 B   ---   --   ---xx   flac  0.5080  gd1994-04-01s1t04.flac
     4:07.30       43641404 B   ---   --   ---xx   flac  0.5281  gd1994-04-01s1t05.flac
     6:55.31       73278956 B   ---   --   ---xx   flac  0.5292  gd1994-04-01s1t06.flac
    13:39.25      144530444 B   ---   --   ---xx   flac  0.5599  gd1994-04-01s1t07.flac
     1:18.09       13780412 B   ---   --   ---xx   flac  0.4196  gd1994-04-01s2t01.flac
     9:22.57       99270908 B   ---   --   ---xx   flac  0.6113  gd1994-04-01s2t02.flac
     5:21.35       56706764 B   ---   --   ---xx   flac  0.5803  gd1994-04-01s2t03.flac
     6:13.59       65936012 B   ---   --   ---xx   flac  0.5669  gd1994-04-01s2t04.flac
    13:51.46      146696636 B   ---   --   ---xx   flac  0.5644  gd1994-04-01s2t05.flac
    11:39.07      123320108 B   ---   --   ---xx   flac  0.5335  gd1994-04-01s2t06.flac
     3:08.45       33269084 B   ---   --   ---xx   flac  0.5626  gd1994-04-01s2t07.flac
    15:13.00      161053244 B   ---   --   ---xx   flac  0.5008  gd1994-04-01s2t08.flac
    15:05.04      159651452 B   ---   --   ---xx   flac  0.4072  gd1994-04-01s2t09.flac
     9:36.70      101771084 B   ---   --   ---xx   flac  0.5157  gd1994-04-01s2t10.flac
    10:05.43      106823180 B   ---   --   ---xx   flac  0.5545  gd1994-04-01s2t11.flac
     7:23.38       78234620 B   ---   --   ---xx   flac  0.5707  gd1994-04-01s2t12.flac
     4:48.70       50967884 B   ---   --   ---xx   flac  0.5400  gd1994-04-01s2t13.flac
   165:28.27     1751363584 B                            0.5359  (20 files)


Show Checksums
ffp
gd1994-04-01s1t01.flac:ca31968671fea3311a99907a2958061e
gd1994-04-01s1t02.flac:7305e9be561e93e56197d3209ecd72b5
gd1994-04-01s1t03.flac:fe8430084268c989b3b097e1f63772c1
gd1994-04-01s1t04.flac:41bbc0396aaae083ac6bb2f5f551914a
gd1994-04-01s1t05.flac:29287cf3e5d102b5682d6b8827cbdc15
gd1994-04-01s1t06.flac:bce0dc0fbac8876d3326cca4acbdfcda
gd1994-04-01s1t07.flac:c914b5a2e8d053536b361d7c796627de
gd1994-04-01s2t01.flac:3a00b6900b0ff54966bb3907b9ef8fa2
gd1994-04-01s2t02.flac:30fd820aaa80061d56896c3e0fd491e2
gd1994-04-01s2t03.flac:d8ab9d493785ab6606bd5aa3c5dc86c7
gd1994-04-01s2t04.flac:867493d53a74a937e622ff09aeb1cd27
gd1994-04-01s2t05.flac:543f5cb706910eb83261ca1ba17665f0
gd1994-04-01s2t06.flac:cffc048e5a71a7c21c60debd975917ec
gd1994-04-01s2t07.flac:76b2dc58eb50dc1f50749a24132cb1d1
gd1994-04-01s2t08.flac:61d50ac1bcf534a65111b74d87ca669a
gd1994-04-01s2t09.flac:15e9791f7752ae5cee1d618599d89e45
gd1994-04-01s2t10.flac:2ccd0eda86f5c1d9e56a54e8f7c3789a
gd1994-04-01s2t11.flac:6a095840da5d297707a39fe961e3f699
gd1994-04-01s2t12.flac:073345b2ff774e1a2204d26f5373ec3d
gd1994-04-01s2t13.flac:d596dd49981d668f8303a816cee5bc56
flac-md5
463c35b96d3eb5b232411ec2e7ad0e11 *gd1994-04-01s1t01.flac
9e9f6a5bdb78d5645e660b4ff6d8e8a9 *gd1994-04-01s1t02.flac
1752610bd6cd8166bf85ed844921bf38 *gd1994-04-01s1t03.flac
36e6cc25921cbcea1ce7c50147b2c365 *gd1994-04-01s1t04.flac
110662bee1276dc33b6ba87ae4db8660 *gd1994-04-01s1t05.flac
0c90c3cb30e851610a7dde689783613b *gd1994-04-01s1t06.flac
3ba9aaf5230e0dc8c44f5501d51cf2ea *gd1994-04-01s1t07.flac
def0433b0d5e0436854488dbae7dac04 *gd1994-04-01s2t01.flac
7705bd3c2e501b46f4784be9d9a00487 *gd1994-04-01s2t02.flac
5b3899d3dde7fb67e02373c3c5e30145 *gd1994-04-01s2t03.flac
2b67df2e0b0ec8f359e0bbb24adba9b3 *gd1994-04-01s2t04.flac
3badef816948193a32f312ef8f086044 *gd1994-04-01s2t05.flac
b2d92455bb420bf35f8e426e7700e8cf *gd1994-04-01s2t06.flac
404a3b32452e2c4dbb920fb60bf0aa3a *gd1994-04-01s2t07.flac
99963d48980b3c35bd310f8f8aa75911 *gd1994-04-01s2t08.flac
33a0e9abf310bde587fe5b956f7b0fef *gd1994-04-01s2t09.flac
db00ca46e5f408f88f02dbb51f93ceb9 *gd1994-04-01s2t10.flac
405f3ade2e108524e226b1bf011201ee *gd1994-04-01s2t11.flac
7555eab538a5c026a6897aadbea3000b *gd1994-04-01s2t12.flac
ab0a83adaf4fa8fd39800443c2d0644f *gd1994-04-01s2t13.flac

Comments
Add Comment
Other Sources (comments)
DSBD> DAT> CD> CD> SHN... (0) Recording Info: SBD -> Dat... (2) flac16; Set 2 Only;... (0) flac16; First... (0) flac24; First... (0) flac16;... (0)
Date User Comment