Browse Collections Artists Sources   Search Dates

Add Show    List Management    Help


Grateful Dead 11/02/79
Nassau Coliseum, Uniondale, NY
Comments Add Comment    Source Collectors    Add to Collection    Add to Want List    History
Source # 142393 Other Sources
Entered by Matt Vernon
Checksums ffp , flac-md5
Disc Counts 0 / 0
Media Size
Date Circulated
Date Added
06/25/2018
06/25/2018
Source Summary flac16/48kHz; Recording Info: SBD > Cassette Master (Sony TC-D5M/Maxell UDXL-II) > Dat (48k); Transfer Info: Dat (Sony PCM-R500) > Tascam DA-3000 > Samplitude Pro X3 Suite > FLAC/48k 
  Archive
Source Information - Download Text | Download Zip
Grateful Dead - November 2, 1979
Nassau Coliseum - Uniondale, NY

Recording Info:
SBD > Cassette Master (Sony TC-D5M/Maxell UDXL-II) > Dat (48k)

Transfer Info:
Dat (Sony PCM-R500) > Tascam DA-3000 > Samplitude Pro X3 Suite > FLAC/48k
(3 Discs Audio / 1 DVD FLAC)

Patch Info:
Nakamichi 700 > Cassette Master (shnid=94220) supplies:
Mississippi Half-Step Uptown Toodleoo (0:00 - 2:09)
Drums (4:18 - 4:48)

All Transfers and Mastering by Charlie Miller
[email protected]
June 24, 2018

Notes:
-- This was my 1st Grateful Dead concert and I turned 16 right after the encore ended
-- This was Brent's first Casey Jones (Billy yells 'fuck you guys' right before it starts)
-- Thanks to Rob Eaton for the dats
-- Thanks to Barry Glassberg and the MOTB crew for the patch source

Set 1:
01 - Mississippi Half-Step Uptown Toodleoo >
02 - Franklin's Tower
03 - El Paso >
04 - Mexicali Blues
05 - Tennessee Jed
06 - Lazy Lightning >
07 - Supplication
08 - Deal

Set 2:
09 - Tuning
10 - I Need A Miracle >
11 - Bertha >
12 - Lost Sailor >
13 - Saint Of Circumstance >
14 - Drums >
15 - Space >
16 - Not Fade Away >
17 - Stella Blue >
18 - Sugar Magnolia

Encore:
19 - Tuning
20 - Casey Jones


SHNTOOL OUTPUT:
    length     expanded size    cdr  WAVE problems  fmt   ratio  filename
    11:12.087     129040692 B   cxx   --   ---xx   flac  0.6092  01 Mississippi Half-Step Uptown Toodeloo.flac
    21:55.847     252642724 B   cxx   --   ---xx   flac  0.5917  02 Franklin's Tower.flac
     4:20.746      50063240 B   cxx   --   ---xx   flac  0.5852  03 El Paso.flac
     6:29.906      74862004 B   cxx   --   ---xx   flac  0.5764  04 Mexicali Blues.flac
    12:39.780     145877852 B   cxx   --   ---xx   flac  0.5777  05 Tennessee Jed.flac
     3:29.977      40315712 B   cxx   --   ---xx   flac  0.6354  06 Lazy Lightning.flac
     6:52.704      79239144 B   cxx   --   ---xx   flac  0.5916  07 Supplication.flac
     5:48.144      66843644 B   cxx   --   ---xx   flac  0.6291  08 Deal.flac
     3:56.358      45380812 B   cxx   --   ---xx   flac  0.4969  09 Tuning.flac
     5:29.018      63171540 B   cxx   --   ---xx   flac  0.6308  10 I Need A Miracle.flac
     7:02.129      81048892 B   cxx   --   ---xx   flac  0.6365  11 Bertha.flac
     6:45.434      77843344 B   cxx   --   ---xx   flac  0.6079  12 Lost Sailor.flac
    19:15.463     221848896 B   cxx   --   ---xx   flac  0.6245  13 Saint Of Circumstance.flac
     8:19.900      95980756 B   cxx   --   ---xx   flac  0.6099  14 Drums.flac
     4:22.506      50401144 B   cxx   --   ---xx   flac  0.6058  15 Space.flac
    10:38.902     122669260 B   cxx   --   ---xx   flac  0.6027  16 Not Fade Away.flac
     9:51.187     113507916 B   cxx   --   ---xx   flac  0.5841  17 Stella Blue.flac
     8:16.715      95369328 B   cxx   --   ---xx   flac  0.6351  18 Sugar Magnolia.flac
     1:03.549      12201472 B   cxx   --   ---xx   flac  0.5015  19 Tuning.flac
     6:14.961      71992648 B   cxx   --   ---xx   flac  0.6375  20 Casey Jones.flac
   164:05.313    1890301020 B                            0.6037  (20 files)



Show Checksums
ffp
01 Mississippi Half-Step Uptown Toodeloo.flac:121fda1b84c86dff9e7324b4cc7ff4de
02 Franklin's Tower.flac:8ff73bab308e4b4eacf35e18a1589223
03 El Paso.flac:cd70ac178fcc05cd084a0c42690425ca
04 Mexicali Blues.flac:f5a4aa5d2ec9d9d8d40f49ddc8a68268
05 Tennessee Jed.flac:8e0a56625687fb9a14b46b46235695a4
06 Lazy Lightning.flac:81d14294251a37dd0b9780811a5e7770
07 Supplication.flac:443779c380ded2ac37ff38b6980625b9
08 Deal.flac:adc393e04bf5570264910125cb30b036
09 Tuning.flac:c3b41fb2401fccf12087d2e8b9f07e60
10 I Need A Miracle.flac:6e6293bb9e0f30d5e47c59771c7b62a5
11 Bertha.flac:2de1f47543ebd673b2bbf99f548df884
12 Lost Sailor.flac:c3eac9bfbc1fa39e6c34bce0bcfcb399
13 Saint Of Circumstance.flac:73eb0a6b63c9c80c484641bfd4e9d9ac
14 Drums.flac:4ad77373cd0432f3f66788a33c979e55
15 Space.flac:922e924dd4ac8f3988bb445e18e85917
16 Not Fade Away.flac:6db3e1dafdedd9906afd9dfda3411551
17 Stella Blue.flac:09e2b292538f4dd77c479edfc03ef150
18 Sugar Magnolia.flac:3cb3379672225a74c09926a4559a5802
19 Tuning.flac:45c745cfe0d3b4d0f11659779b88ed64
20 Casey Jones.flac:983813dd8e19c0ed9cb5f39c51276655
flac-md5
67ebfced2e6ca2ed5a744bd5b9e12763 *01 Mississippi Half-Step Uptown Toodeloo.flac
97e67585405bbcc087053b89b0c4ffac *02 Franklin's Tower.flac
13b5e8cdf4c1825d9ed763c40f0fbd91 *03 El Paso.flac
706b7575d0ddcd180ab427ca0503373a *04 Mexicali Blues.flac
dc8110bf68fb100d482e5877b43026d1 *05 Tennessee Jed.flac
46a7c57997186812f619958a95ec874a *06 Lazy Lightning.flac
cd549a45a1715466eb474a4fa8de5a73 *07 Supplication.flac
5323e330c442edfb13cf51234711751c *08 Deal.flac
16f595709b7b5d0123fcfa66b9a26991 *09 Tuning.flac
a9c87b80ec0991c8e0eee2c3bf45e259 *10 I Need A Miracle.flac
025d615e60467c8bb43ffac4f98820dc *11 Bertha.flac
e59ffda7e4bcfab489c5be10cdc13408 *12 Lost Sailor.flac
9fa9408d15ec955bb178b343f3da799e *13 Saint Of Circumstance.flac
acc1b8d10ed7c1416651064cf09f4715 *14 Drums.flac
471679c9631a923b703d9abaee1f15ed *15 Space.flac
c2c328877af18bca028d78640448b780 *16 Not Fade Away.flac
34273a2643ecd82ae9893cfa1a3ef4a3 *17 Stella Blue.flac
bad1cb8ddb0fddac8e550307d36edea6 *18 Sugar Magnolia.flac
f7929c7c4b4c4900ecab07519e18bfda *19 Tuning.flac
8b4d318f45490b3a48108b37af2d781f *20 Casey Jones.flac

Comments
Add Comment
Other Sources (comments)
SBD > Cass (Dolby S) > Nak... (1) SBD> MR> Dick's cassette>... (1) AUD> MC> DAT> CDR; via Paul... (0) flac16; 2 x... (0) flac24; 2 x... (0) flac16; Taper: Gerry... (0) flac16; Matrix by... (0)
Date User Comment