Browse Collections Artists Sources   Search Dates

Add Show    List Management    Help


Grateful Dead 03/03/87
Henry J Kaiser Convention Center, Oakland, CA
Comments Add Comment    Source Collectors    Add to Collection    Add to Want List    History
Source # 142400 Other Sources
Entered by Matt Vernon
Checksums ffp , flac-md5
Disc Counts 0 / 0
Media Size Compressed: 853 MB (894435328 bytes)
Uncompressed: 1.4 GB (1499463680 bytes)
Date Circulated
Date Added
06/26/2018
06/26/2018
Source Summary flac16; Matrix 2 Source Mix - SBD (shnid = 82726) Recording Info: SBD -> Cassette Master (Sony D5); Transfer Info: Cassette Master (Tascam 122mkII) -> Apogee MiniMe (24bit/48k) -> Samplitude Professional v8.01 -> FLAC/16 + AUD (shnid = 135314) Unknown mics & lead deck > Sony TC-D5M > Maxell MX-Metal 90's. Recording by Jon Bernstein. Transfer: MAC > Nakamichi CR-5A > Edirol FA-66 > Wavelab 2448 > CD-Wave (24bit output) > R8Brain > TLH > FLAC 1644 tagged. Transferred by Andrew F. 03/2016 - matrix mixing by Kevin Tobin 
  Archive
Source Information - Download Text | Download Zip
Grateful Dead
March 3, 1987
Henry J. Kaiser Convention Center
Oakland, CA

SBD + AUD Matrix 2 Source Mix (44/16)

Set 1:
d1t01 - The Mighty Quinn (Quinn The Eskimo)
d1t02 - Greatest Story Ever Told
d1t03 - Loser
d1t04 - New Minglewood Blues
d1t05 - Tons Of Steel
d1t06 - Cassidy
d1t07 - Mississippi Half-Step Uptown Toodeloo ->
d1t08 - The Promised Land

Set 2:
d2t01 - Iko Iko*
d2t02 - Saint Of Circumstance
d2t03 - Terrapin Station ->
d2t04 - Drums ->
d3t01 - Space ->
d3t02 - Gimme Some Lovin' ->
d3t03 - Wharf Rat ->
d3t04 - Throwing Stones ->
d3t05 - Touch Of Grey

Encore:
d3t06 - Brokedown Palace

Jerry Garcia - Guitar
Bob Weir - Guitar
Brent Mydland - Keyboards
Phil Lesh - Bass
Bill Kreutzmann - Drums
Mickey Hart - Drums
Dirty Dozen Brass Band *

Audio Source Information
Original SBD (shnid = 82726)

Recording Info:
SBD -> Cassette Master (Sony D5)

Transfer Info:
Cassette Master (Tascam 122mkII) -> Apogee MiniMe (24bit/48k) ->
Samplitude Professional v8.01 -> FLAC/16
(2 Discs Audio / 2 Discs FLAC)

All Transfers and Mastering By Charlie Miller
[email protected]
February 7, 2007

Patch Info:
SBD/UltraMatrix Cassette Master supplies:
Drums (7:02 - 7:53)

Notes:
-- Disc change is seamless
-- Mardi Gras Parade with the Dirty Dozen Brass Band during Iko
-- Thanks to Paul Scotton and Joani Walker for the tapes

Original  AUD (shnid=135314)
AUD: Unknown mics & lead deck > Sony TC-D5M > Maxell MX-Metal 90's. Recording by Jon Bernstein.

Transfer: MAC > Nakamichi CR-5A > Edirol FA-66 > Wavelab 2448 > CD-Wave (24bit output) > R8Brain > TLH > FLAC 1644 tagged. Transferred by Andrew F. 03/2016

Note: Tape-flips patched with ID-82725; crowd after Cassidy 6:14 > Half Step 0:03, and Jam 0:00 > 0:40.
---------------------------------------------------------
- Mixed by [email protected]m
- FLAC conversion 26-JUN-2018 - Trader Little Helper
- Tagged 26-JUN-2018 - Tag&Rename
---------------------------------------------------------
Brokedown House Production

    length     expanded size    cdr  WAVE problems  fmt   ratio  filename
     5:17.29       55987052 B   ---   --   -----    wav  1.0000  gd1987-03-03d1t01.wav
     5:02.34       53352812 B   ---   --   -----    wav  1.0000  gd1987-03-03d1t02.wav
     7:58.57       84453308 B   ---   --   -----    wav  1.0000  gd1987-03-03d1t03.wav
     9:28.41      100291676 B   ---   --   -----    wav  1.0000  gd1987-03-03d1t04.wav
     7:06.27       75209948 B   ---   --   -----    wav  1.0000  gd1987-03-03d1t05.wav
     6:23.04       67570652 B   ---   --   -----    wav  1.0000  gd1987-03-03d1t06.wav
     9:17.39       98346572 B   ---   --   -----    wav  1.0000  gd1987-03-03d1t07.wav
     4:21.14       46073372 B   ---   --   -----    wav  1.0000  gd1987-03-03d1t08.wav
    11:31.09      121913612 B   ---   --   -----    wav  1.0000  gd1987-03-03d2t01.wav
     7:28.34       79107212 B   ---   --   -----    wav  1.0000  gd1987-03-03d2t02.wav
    12:46.50      135240044 B   ---   --   -----    wav  1.0000  gd1987-03-03d2t03.wav
     7:36.53       80563100 B   ---   --   -----    wav  1.0000  gd1987-03-03d2t04.wav
     7:21.01       77794796 B   ---   --   -----    wav  1.0000  gd1987-03-03d3t01.wav
     4:56.19       52259132 B   ---   --   -----    wav  1.0000  gd1987-03-03d3t02.wav
     9:06.23       96368540 B   ---   --   -----    wav  1.0000  gd1987-03-03d3t03.wav
     8:41.65       92057324 B   ---   --   -----    wav  1.0000  gd1987-03-03d3t04.wav
     6:01.58       63816860 B   ---   --   -----    wav  1.0000  gd1987-03-03d3t05.wav
     5:18.56       56226956 B   ---   --   -----    wav  1.0000  gd1987-03-03d3t06.wav
   135:44.13     1436632968 B                            1.0000  (18 files)



Show Checksums
ffp
gd1987-03-03d1t01.flac:d22f32284394fa8b7f690ad18e897dbd
gd1987-03-03d1t02.flac:b942c1224b4e98ff528ffb6bf37c073c
gd1987-03-03d1t03.flac:88d8bbf3a7b6fe0160c77480c03b8b0c
gd1987-03-03d1t04.flac:ef9000341eb06934ee9496e685d312b1
gd1987-03-03d1t05.flac:ca9b5f58e50495f3fcdc69a784c3574b
gd1987-03-03d1t06.flac:7999b155a66dfabaea24eb1923fd159f
gd1987-03-03d1t07.flac:8456adb7dbee3f2ba6d3c659d1db288f
gd1987-03-03d1t08.flac:5e99354112e40b2db90ae6ec07257000
gd1987-03-03d2t01.flac:d797ba56124fd2a611b93b9137d5dc1e
gd1987-03-03d2t02.flac:11ee82de0728daa1304348a2fce89a48
gd1987-03-03d2t03.flac:b2b1d889f24bcc6f419c063461dfd95a
gd1987-03-03d2t04.flac:273567929c7a15cdda1d18a28592cf7b
gd1987-03-03d3t01.flac:2912b77c07a7fc2ef6421e6cd33554bb
gd1987-03-03d3t02.flac:19b697015efa56df5cd3e86d84cf8526
gd1987-03-03d3t03.flac:aec0e65687484517e0fd0ed6079c2d02
gd1987-03-03d3t04.flac:ed4edd96f354df14cd6bbede6c080e65
gd1987-03-03d3t05.flac:2c5d0a2f2ab97963f105a7d94bcb138a
gd1987-03-03d3t06.flac:ce264d1bf9fd4294bf4f4a1aeba5fe0c
flac-md5
86ea4b5b44e53bd7fdd055f5c3c831c5 *gd1987-03-03d1t01.flac
69fd2d439477bf6bd90eb7087abb954d *gd1987-03-03d1t02.flac
ecf121b02c80a2690427ca0e1b08f908 *gd1987-03-03d1t03.flac
6e5b191d2d6e032039c45ba70702563e *gd1987-03-03d1t04.flac
cd5f7aae6f70e7ce1464c431898a1ea2 *gd1987-03-03d1t05.flac
4292c2e975736263113adf4cf24f43b7 *gd1987-03-03d1t06.flac
0636ba7c602bdf51190d5dd3f3923581 *gd1987-03-03d1t07.flac
106cb80da50264f89813d98ecc204ba1 *gd1987-03-03d1t08.flac
0e7ecc198a1cc99eaac1afa97b5ddb28 *gd1987-03-03d2t01.flac
8e5eca05d1ffba90b57a09764395f81f *gd1987-03-03d2t02.flac
3b04056a3189d898f1d2195f7c099338 *gd1987-03-03d2t03.flac
227c8196f53bfec893e62d0fd6410ff9 *gd1987-03-03d2t04.flac
d1269c3c9a3cff66db5c1eed1d857708 *gd1987-03-03d3t01.flac
9413b805bef27abe26f82192260ee31f *gd1987-03-03d3t02.flac
0582a78579c5b98b314962733544d751 *gd1987-03-03d3t03.flac
0dd1c01d8b64deb184f290a6a7abc7b5 *gd1987-03-03d3t04.flac
07a85d10d03f5d1bbeaceea0fd597f9e *gd1987-03-03d3t05.flac
d45ce974a6f60d4018e4fdc78807ff09 *gd1987-03-03d3t06.flac

Comments
Add Comment
Other Sources (comments)
SBD > MC > DAT > CDR; via... (0) flac16; Recording... (0) flac16; Recording... (0) flac24; AUD: Unknown... (0) flac16; AUD: Unknown... (0) DTS-Audio-CD 5.1... (0) flac16/48kHz; 5.1... (0)
Date User Comment