Browse Collections Artists Sources   Search Dates

Add Show    List Management    Help


Grateful Dead 02/28/81
Uptown Theater, Chicago, IL
Comments Add Comment    Source Collectors    Add to Collection    Add to Want List    History
Source # 142412 Other Sources
Entered by Matt Vernon
Checksums ffp , flac-md5
Disc Counts 0 / 0
Media Size
Date Circulated
Date Added
06/27/2018
06/27/2018
Source Summary flac16; Recording Info: Master Soundboard Cassette > Dat (Panasonic SV-3700 16/48k) > CDR > Dat (Sony PCM R-700 16/44.1k); Transfer Info: Dat (Sony PCM-R500) > Tascam DA-3000 > Adobe Audition 3.0 > TLH flac16 
  Archive
Source Information - Download Text | Download Zip
Grateful Dead
Uptown Theatre
Chicago, IL
Saturday February 28th, 1981

Recording Info:
Master Soundboard Cassette > Dat (Panasonic SV-3700 16/48k) > CDR > Dat (Sony PCM R-700 16/44.1k)

Transfer Info:
Dat (Sony PCM-R500) > Tascam DA-3000 > Adobe Audition 3.0 > TLH flac16

Notes:
- Thanks to Rob Eaton for the source Dat
- Thanks to Charlie Miller for the transfer and coordinating this effort
- First verifiable lineage in general circulation
- No noise reduction has been used in this transcription
- The beginnings of "Jack Straw", "Althea" and "Ship Of Fools" are intact
- Thanks to Barry Glassberg, John Steinthal, Mark Cohen and Matt Vernon for the shnid20345 Nakamichi 700 source which supplies a few seconds of crowd before "Jack Straw", a 0:05 patch in "Drums", as well as the final 0:58 of "Good Lovin'"
- Other One space included in "The Other One"
- Between song transitions smoothed

Mastered by Scott Clugston
June 24, 2018

Set One:
t01 - Jack Straw
t02 - They Love Each Other
t03 - Mama Tried >
t04 - Mexicali Blues
t05 - Candyman
t06 - Little Red Rooster
t07 - Big Railroad Blues
t08 - Looks Like Rain
t09 - Althea
t10 - Let It Grow >
t11 - Deal

Set Two:
t12 - Cold Rain & Snow >
t13 - Greatest Story Ever Told
t14 - Ship Of Fools
t15 - Lost Sailor >
t16 - Saint Of Circumstance >
t17 - Terrapin Station >
t18 - Drums >
t19 - Space >
t20 - The Other One >
t21 - Stella Blue >
t22 - Around & Around >
t23 - Good Lovin'
Encore:
t24 - One More Saturday Night



    length     expanded size    cdr  WAVE problems  fmt   ratio  filename
     6:29.56       68751356 B   ---   --   ---xx   flac  0.5560  gd81-02-28 t01 Jack Straw.flac
     7:21.31       77865356 B   ---   --   ---xx   flac  0.5568  gd81-02-28 t02 They Love Each Other.flac
     2:36.64       27668972 B   ---   --   ---xx   flac  0.6269  gd81-02-28 t03 Mama Tried.flac
     4:24.09       46590812 B   ---   --   ---xx   flac  0.6333  gd81-02-28 t04 Mexicali Blues.flac
     7:14.72       76726988 B   ---   --   ---xx   flac  0.5652  gd81-02-28 t05 Candyman.flac
     8:25.41       89178476 B   ---   --   ---xx   flac  0.6057  gd81-02-28 t06 Little Red Rooster.flac
     4:59.66       52898876 B   ---   --   ---xx   flac  0.6473  gd81-02-28 t07 Big Railroad Blues.flac
     7:22.23       78022940 B   ---   --   ---xx   flac  0.5792  gd81-02-28 t08 Looks Like Rain.flac
     9:15.09       97923212 B   ---   --   ---xx   flac  0.5869  gd81-02-28 t09 Althea.flac
    11:44.64      124336172 B   ---   --   ---xx   flac  0.6031  gd81-02-28 t10 Let It Grow.flac
     7:47.10       82402364 B   ---   --   ---xx   flac  0.6101  gd81-02-28 t11 Deal.flac
     6:14.70       66138284 B   ---   --   ---xx   flac  0.6030  gd81-02-28 t12 Cold Rain & Snow.flac
     4:16.69       45320732 B   ---   --   ---xx   flac  0.6272  gd81-02-28 t13 Greatest Story Ever Told.flac
     8:43.34       92337212 B   ---   --   ---xx   flac  0.5487  gd81-02-28 t14 Ship Of Fools.flac
     5:57.46       63083036 B   ---   --   ---xx   flac  0.5701  gd81-02-28 t15 Lost Sailor.flac
     6:29.54       68746652 B   ---   --   ---xx   flac  0.6179  gd81-02-28 t16 Saint Of Circumstance.flac
    15:28.73      163870940 B   ---   --   ---xx   flac  0.5458  gd81-02-28 t17 Terrapin Station.flac
    13:37.00      144118844 B   ---   --   ---xx   flac  0.4330  gd81-02-28 t18 Drums.flac
     8:07.30       85977404 B   ---   --   ---xx   flac  0.4427  gd81-02-28 t19 Space.flac
     8:57.00       94726844 B   ---   --   ---xx   flac  0.5421  gd81-02-28 t20 The Other One.flac
     7:27.48       78963740 B   ---   --   ---xx   flac  0.4694  gd81-02-28 t21 Stella Blue.flac
     3:54.57       41411708 B   ---   --   ---xx   flac  0.5580  gd81-02-28 t22 Around & Around.flac
     8:08.13       86113820 B   ---   --   ---xx   flac  0.5882  gd81-02-28 t23 Good Lovin'.flac
     4:46.64       50600972 B   ---   --   ---xx   flac  0.5918  gd81-02-28 t24 One More Saturday Night.flac
   179:52.28     1903775712 B                            0.5607  (24 files)


Show Checksums
ffp
gd81-02-28 t01 Jack Straw.flac:db8f56e0815d20d00bd85b835bc9c824
gd81-02-28 t02 They Love Each Other.flac:0c0f86eb718e27cb4256e2e2466bcf16
gd81-02-28 t03 Mama Tried.flac:ecdff98a810d7704fcddfb5a36518350
gd81-02-28 t04 Mexicali Blues.flac:e8d001d3e4f175ec5d98588eaff6fb37
gd81-02-28 t05 Candyman.flac:fc2828b4ca03d95d91b06af46d264aab
gd81-02-28 t06 Little Red Rooster.flac:638e5cbce2ad05a0728c314594a3cfb0
gd81-02-28 t07 Big Railroad Blues.flac:9c3d23972ff075bc2265a0fc527b3440
gd81-02-28 t08 Looks Like Rain.flac:a71c3fd945eb1f7963ee05b757aa394e
gd81-02-28 t09 Althea.flac:faaea3a135e378d8ccec8c54bfd63598
gd81-02-28 t10 Let It Grow.flac:c32a09fb67d60c7ebd7f91e7380cf586
gd81-02-28 t11 Deal.flac:7424ade0f27de51b8a5ef2a49d71df54
gd81-02-28 t12 Cold Rain & Snow.flac:7021653fadcdc55930affab3ef636da8
gd81-02-28 t13 Greatest Story Ever Told.flac:2a7813e92119883dd58487da9afb340a
gd81-02-28 t14 Ship Of Fools.flac:89dbc13f275693c99f528c31eb49e459
gd81-02-28 t15 Lost Sailor.flac:fc9942c31d8d2519828f013a7dbdc21e
gd81-02-28 t16 Saint Of Circumstance.flac:5be94bb6fae991fbf6f7fea052b7d450
gd81-02-28 t17 Terrapin Station.flac:5deab7341252101fc4039f91c0cc6cdf
gd81-02-28 t18 Drums.flac:a03f0898f9cc08c52252b20511f7dbe2
gd81-02-28 t19 Space.flac:e43d0e88111bcb925e1a36a19abad1c3
gd81-02-28 t20 The Other One.flac:729a514f84304dbd2796ba02ce57a2d8
gd81-02-28 t21 Stella Blue.flac:b37f575ee4587b79944d018365edb1b0
gd81-02-28 t22 Around & Around.flac:7065132764494fc4d87ee654e225cfe7
gd81-02-28 t23 Good Lovin'.flac:e3a47885d187ee5699826d0a470c9591
gd81-02-28 t24 One More Saturday Night.flac:ce82c68139dbf9c358051bcce7ee7330
flac-md5
b9738d7879ec8298d2c0accdcdb419d0 *gd81-02-28 t01 Jack Straw.flac
28d8ec70f861a21e64b19177468bfe8b *gd81-02-28 t02 They Love Each Other.flac
a5dd2cd98e123a8d9d84c653ffb1d75a *gd81-02-28 t03 Mama Tried.flac
3e4525f9d56f16aadb267dfab199885d *gd81-02-28 t04 Mexicali Blues.flac
6c94a9db19b2d48feb2097d3e0baef68 *gd81-02-28 t05 Candyman.flac
cc6f049bf8079ec8c6677cd3d9a4c8bf *gd81-02-28 t06 Little Red Rooster.flac
f20f397a2e6112e3c92d7327afcdd9ad *gd81-02-28 t07 Big Railroad Blues.flac
c935fc97b72810a0a53c1c9f823cedde *gd81-02-28 t08 Looks Like Rain.flac
630064af6166b096e9d6356838dd7d88 *gd81-02-28 t09 Althea.flac
447b6b410b9e1042b2f9f97b5da9f52a *gd81-02-28 t10 Let It Grow.flac
df1db91e6f973f124dddb20c3efb4ddc *gd81-02-28 t11 Deal.flac
b160bbbfef3e359d76d089783ab9879f *gd81-02-28 t12 Cold Rain & Snow.flac
7b1bd83126de4ee5495f43b0710acb7e *gd81-02-28 t13 Greatest Story Ever Told.flac
12e1d65ae84a946632ec2cb6f21109de *gd81-02-28 t14 Ship Of Fools.flac
81de3fb4d2e948a440db66ef05bfd4fd *gd81-02-28 t15 Lost Sailor.flac
4374ef6e39f002368db4f5cb2428651d *gd81-02-28 t16 Saint Of Circumstance.flac
f80e12cf815b4ddbc5d3a4f357cd36dd *gd81-02-28 t17 Terrapin Station.flac
78c62179bca439ebabb5caddf120fafa *gd81-02-28 t18 Drums.flac
35d39754cb59b6dd7135acaf1239198c *gd81-02-28 t19 Space.flac
5721b2d96e44cda92203be0f8dba4bb6 *gd81-02-28 t20 The Other One.flac
abe254a38fe02028e9ca04921c3dc721 *gd81-02-28 t21 Stella Blue.flac
0768faddaa3e72ed3b2db83486f16b09 *gd81-02-28 t22 Around & Around.flac
aadfbe9508972e8d992d184f63c3e79f *gd81-02-28 t23 Good Lovin'.flac
e6c8bdae76ca0b34827aa5d917012a54 *gd81-02-28 t24 One More Saturday Night.flac

Comments
Add Comment
Other Sources (comments)
SBD > Cassette Master >... (3) Taped by Barry Glassberg:... (0) flac16; SBD/AUD... (2) flac16; Recorded By... (0)
Date User Comment