Browse Collections Artists Sources   Search Dates

Add Show    List Management    Help


Grateful Dead 10/02/87
Shoreline Amphitheatre, Mountain View, CA
Comments Add Comment    Source Collectors    Add to Collection    Add to Want List    History
Source # 142470 Other Sources
Entered by Matt Vernon
Checksums ffp , flac-md5
Disc Counts 0 / 0
Media Size
Date Circulated
Date Added
06/30/2018
06/30/2018
Source Summary flac24; Recording Info: SBD > Beta HiFi Master (Sony Betamax/TDK HS); Transfer Info: Beta HiFi Master (Sony SL-HF66) > Tascam DA-3000 (DSF 1-bit/5.6MHz) > dBpoweramp > Samplitude Pro X3 Suite > FLAC/24; All Transfers and Mastering By Charlie Miller 
  Archive
Source Information - Download Text | Download Zip
Grateful Dead - October 2, 1987
Shoreline Amphitheatre - Mountain View, CA

Recording Info:
SBD > Beta HiFi Master (Sony Betamax/TDK HS)

Transfer Info:
Beta HiFi Master (Sony SL-HF66) > Tascam DA-3000 (DSF 1-bit/5.6MHz) >
dBpoweramp > Samplitude Pro X3 Suite > FLAC/24
(1 DVD FLAC)

All Transfers and Mastering By Charlie Miller
[email protected]
June 30, 2018

Notes:
-- This is a Healy Mix SBD with no ambient mics
-- Set 2 has line level distortion during some loud parts

Set 1:
01 - Tuning
02 - Cold Rain And Snow
03 - Little Red Rooster
04 - Stagger Lee
05 - Me And My Uncle >
06 - Mexicali Blues
07 - Row Jimmy
08 - Far From Me
09 - Let It Grow

Set 2:
10 - China Cat Sunflower >
11 - I Know You Rider
12 - Man Smart (Woman Smarter)
13 - Ship Of Fools
14 - Truckin' >
15 - Drums >
16 - Space >
17 - The Wheel >
18 - Gimme Some Lovin' >
19 - All Along The Watchtower
20 - Don't Ease Me In

Encore:
21 - Encore Break
22 - Black Muddy River


SHNTOOL OUTPUT:
   length     expanded size    cdr  WAVE problems  fmt   ratio  filename
    1:19.672      45891092 B   cxx   --   ---xx   flac  0.5261  01 Tuning.flac
    7:00.700     242323166 B   cxx   --   ---xx   flac  0.6174  02 Cold Rain And Snow.flac
    8:56.879     309242408 B   cxx   --   ---xx   flac  0.6273  03 Little Red Rooster.flac
    6:49.219     235710092 B   cxx   --   ---xx   flac  0.6014  04 Stagger Lee.flac
    3:06.192     107246546 B   cxx   --   ---xx   flac  0.6382  05 Me And My Uncle.flac
    5:56.920     205585922 B   cxx   --   ---xx   flac  0.6093  06 Mexicali Blues.flac
   10:44.018     370954544 B   cxx   --   ---xx   flac  0.6007  07 Row Jimmy.flac
    4:27.482     154069574 B   cxx   --   ---xx   flac  0.6376  08 Far From Me.flac
   13:07.940     453853238 B   cxx   --   ---xx   flac  0.6322  09 Let It Grow.flac
    5:59.728     207203192 B   cxx   --   ---xx   flac  0.6157  10 China Cat Sunflower.flac
    5:26.964     188331554 B   cxx   --   ---xx   flac  0.6479  11 I Know You Rider.flac
    8:08.594     281430050 B   cxx   --   ---xx   flac  0.6416  12 Man Smart (Woman Smarter).flac
    7:56.794     274633310 B   cxx   --   ---xx   flac  0.6294  13 Ship Of Fools.flac
    9:28.827     327644306 B   cxx   --   ---xx   flac  0.6410  14 Truckin'.flac
    8:23.447     289985768 B   cxx   --   ---xx   flac  0.5852  15 Drums.flac
    7:40.057     264993104 B   cxx   --   ---xx   flac  0.5854  16 Space.flac
    4:55.731     170341184 B   cxx   --   ---xx   flac  0.6319  17 The Wheel.flac
    4:55.663     170301764 B   cxx   --   ---xx   flac  0.6522  18 Gimme Some Lovin'.flac
    6:22.186     220138940 B   cxx   --   ---xx   flac  0.6573  19 All Along The Watchtower.flac
    3:32.574     122442788 B   cxx   --   ---xx   flac  0.6532  20 Don't Ease Me In.flac
    2:53.309      99826088 B   cxx   --   ---xx   flac  0.5162  21 Encore Break.flac
    6:10.267     213273662 B   cxx   --   ---xx   flac  0.6287  22 Black Muddy River.flac
  143:23.162    4955422292 B                            0.6211  (22 files)


Show Checksums
ffp
01 Tuning.flac:bdf7e04387fa14c3b2426abb2676aeee
02 Cold Rain And Snow.flac:ed61ba07096370513112898e41f34a31
03 Little Red Rooster.flac:dd908b6fe950121927f41d7ac2c71824
04 Stagger Lee.flac:8a4eea4e836bccea7c1148540e821581
05 Me And My Uncle.flac:310c00ff769b50357a336b51661e6d67
06 Mexicali Blues.flac:0478c0124754f60a25166bdad4098fea
07 Row Jimmy.flac:bc350cc37e919a19b514f9295e0b4554
08 Far From Me.flac:8db3d3d3836f84661ab89befe08799a3
09 Let It Grow.flac:7a85f22696a9454806f67968ff41ffcd
10 China Cat Sunflower.flac:cd3888d37e0ee3f0fc73946a4ba2e01b
11 I Know You Rider.flac:bb302964234071d6396375490cd1d010
12 Man Smart (Woman Smarter).flac:c7f8adb86ac998315194d340bcf66dde
13 Ship Of Fools.flac:eea332b0f26a005b46f2dd384e91eba1
14 Truckin'.flac:8a6e8fdf3c2da95486ac919ffc05c18d
15 Drums.flac:eccce9541ed29bb8b167a1561d5460c9
16 Space.flac:aa3304d563498060c76be4bc671980df
17 The Wheel.flac:4fa94586247a86dac66db28153851b64
18 Gimme Some Lovin'.flac:1244fa7ac3544aad4d3c719d1755b310
19 All Along The Watchtower.flac:82903199828cb1c4e9a43f95736210e1
20 Don't Ease Me In.flac:302a3810b4f90ac6b6a1ef6dd0aed7d6
21 Encore Break.flac:1a4b93a6a2d97986f2c5c6f20e676534
22 Black Muddy River.flac:35198d9be64c984c21ac4633604eb22d
flac-md5
f99f1d025f6f7c0b0a46fb53fdf9944c *01 Tuning.flac
a4654c79cd95d20cb5eb3d116bf0e56d *02 Cold Rain And Snow.flac
1d2a0847aded76b19eb1bca109751287 *03 Little Red Rooster.flac
ff5ce2ac2a49c7bd3440de37310d2ab7 *04 Stagger Lee.flac
6fc3a20e4e9817b1e15def4df41a3929 *05 Me And My Uncle.flac
2bec7daf076bca98c9b4d4e6b5161e6e *06 Mexicali Blues.flac
547ec13d05360c6c915823eacab2a358 *07 Row Jimmy.flac
ca230680edecfe6bcf128a0572ac9d25 *08 Far From Me.flac
cab6639a64abeb918692ecb196abe818 *09 Let It Grow.flac
bd55f516bbcba7c516118122b02268fd *10 China Cat Sunflower.flac
735e9a91cbfff908926b2c5764a96a6c *11 I Know You Rider.flac
2dad90ee99a9e8983ebb84487edd6f36 *12 Man Smart (Woman Smarter).flac
5fb50a2334acefd720269588e8e8e156 *13 Ship Of Fools.flac
47822d09818f27ada7d9ea8e23538bd0 *14 Truckin'.flac
eb0f0f16d1d027ff356367c3aa66b72e *15 Drums.flac
5a6439bb3944ec02130c0b1358bbc72d *16 Space.flac
79e1100d9ae54c4b1a68830e3ba4f56b *17 The Wheel.flac
291f7ebbad85c77bddeb5f5396e05834 *18 Gimme Some Lovin'.flac
bd9738ea59a4658761c63a33a0fbce0c *19 All Along The Watchtower.flac
1e7842da5ed60135900e7205519fa83b *20 Don't Ease Me In.flac
4a36475625904a0c3426cbe4c6b3ac14 *21 Encore Break.flac
1d6bbbfe17c5d6ea2ca14ede5c79e71b *22 Black Muddy River.flac

Comments
Add Comment
Other Sources (comments)
SBD> CM> DAT> WAV (Ego Sys... (0) Jay Ashley (Bertha)... (0) SBD> CM> DAT> WAV> CD> EAC>... (0) flac16; Recording... (0) flac16; Hat Mounted... (1) flac16; Recording... (0) flac16; Source Info:... (0) flac16; Recording... (0)
Date User Comment