Browse Collections Artists Sources   Search Dates

Add Show    List Management    Help


Allman Brothers Band 07/31/89
Red Rocks Ampitheatre, Morrison, CO
Comments Add Comment    Source Collectors    Add to Collection    Add to Want List    History
Source # 142484 Other Sources
Entered by Matt Vernon
Checksums ffp
Disc Counts 0 / 0
Media Size
Date Circulated
Date Added

07/01/2018
Source Summary flac16 44.1khz Soundboard 
Source Information - Download Text | Download Zip
Allman Brothers Band
07/31/89
Red Rocks Ampitheatre, Morrison, CO

source: soundboard

Don't Want You No More >
It's Not My Cross To Bear
Statesboro Blues
Blue Sky
I'm No Angel
Duane's Tune
Blues Ain't Nothin'
In Memory Of Elizabeth Reed
One Way Out
Melissa
Just Before The Bullets Fly
Dreams
Southbound
Jessica
Les Brers In A Minor
Whipping Post

Note:  see below shntool and ffp comparison
timings of this and prior sbd are essentially identical byte wise
ffp’s differ all tracks
this likely originate from same common parent at some point in their lineage

- - - - this source shntool

    length     expanded size    cdr  WAVE problems  fmt   ratio  filename
     4:57.20       52437884 B   ---   --   ---xx   flac  0.4392  abb1989-07-31s1-01.flac
     5:10.27       54747548 B   ---   --   ---xx   flac  0.4304  abb1989-07-31s1-02.flac
     6:44.05       71277404 B   ---   --   ---xx   flac  0.4396  abb1989-07-31s1-03.flac
     6:11.02       65449148 B   ---   --   ---xx   flac  0.4454  abb1989-07-31s1-04.flac
     4:38.09       49060412 B   ---   --   ---xx   flac  0.4400  abb1989-07-31s1-05.flac
     4:13.39       44720972 B   ---   --   ---xx   flac  0.4370  abb1989-07-31s1-06.flac
     7:12.15       76240124 B   ---   --   ---xx   flac  0.4329  abb1989-07-31s1-07.flac
    13:26.50      142296044 B   ---   --   ---xx   flac  0.4396  abb1989-07-31s1-08.flac
    10:37.21      112416236 B   ---   --   ---xx   flac  0.4344  abb1989-07-31s1-09.flac
     5:33.64       58891772 B   ---   --   ---xx   flac  0.4195  abb1989-07-31s1-10.flac
     5:44.50       60799244 B   ---   --   ---xx   flac  0.4224  abb1989-07-31s1-11.flac
    11:10.39      118279772 B   ---   --   ---xx   flac  0.4182  abb1989-07-31s2-01.flac
     7:45.66       82181276 B   ---   --   ---xx   flac  0.4275  abb1989-07-31s2-02.flac
    14:23.33      152310860 B   ---   --   ---xx   flac  0.4233  abb1989-07-31s2-03.flac
    16:52.70      178681484 B   ---   --   ---xx   flac  0.4231  abb1989-07-31s2-04.flac
    13:26.42      142277228 B   ---   --   ---xx   flac  0.4270  abb1989-07-31s2-05.flac
   138:08.27     1462067408 B                            0.4298  (16 files)

- - - - shnid = 127480 shntool

    length     expanded size    cdr  WAVE problems  fmt   ratio  filename
     4:57.20       52437884 B   ---   --   ---xx   flac  0.4396  abb1989-07-31d1t01.flac
     5:10.27       54747548 B   ---   --   ---xx   flac  0.4308  abb1989-07-31d1t02.flac
     6:44.05       71277404 B   ---   --   ---xx   flac  0.4399  abb1989-07-31d1t03.flac
     6:11.02       65449148 B   ---   --   ---xx   flac  0.4458  abb1989-07-31d1t04.flac
     4:38.09       49060412 B   ---   --   ---xx   flac  0.4404  abb1989-07-31d1t05.flac
     4:13.39       44720972 B   ---   --   ---xx   flac  0.4374  abb1989-07-31d1t06.flac
     7:12.15       76240124 B   ---   --   ---xx   flac  0.4333  abb1989-07-31d1t07.flac
    13:26.50      142296044 B   ---   --   ---xx   flac  0.4399  abb1989-07-31d1t08.flac
    10:37.21      112416236 B   ---   --   ---xx   flac  0.4348  abb1989-07-31d1t09.flac
     5:33.64       58891772 B   ---   --   ---xx   flac  0.4200  abb1989-07-31d1t10.flac
     5:44.51       60801596 B   ---   --   ---xx   flac  0.4234  abb1989-07-31d1t11.flac
    11:10.39      118279772 B   ---   --   ---xx   flac  0.4185  abb1989-07-31d2t01.flac
     7:45.66       82181276 B   ---   --   ---xx   flac  0.4278  abb1989-07-31d2t02.flac
    14:23.33      152310860 B   ---   --   ---xx   flac  0.4236  abb1989-07-31d2t03.flac
    16:52.70      178681484 B   ---   --   ---xx   flac  0.4239  abb1989-07-31d2t04.flac
    13:26.43      142279580 B   ---   --   ---xx   flac  0.4280  abb1989-07-31d2t05.flac
   138:08.29     1462072112 B                            0.4303  (16 files)

- - - - ffp shnid = 127480

abb1989-07-31d1t01.flac:30e4c351c98ca401b0e84ab4754e23f3
abb1989-07-31d1t02.flac:7552e7cd2352c8b1789e98c74d5a7b94
abb1989-07-31d1t03.flac:f1bf434104b748a2ff7ebe10abf01aa1
abb1989-07-31d1t04.flac:82d459dc3b1829afbeacb913d16295b2
abb1989-07-31d1t05.flac:293aea372393bcf312ff23b6995bfee7
abb1989-07-31d1t06.flac:c66b059f10796364534919a8f29d3317
abb1989-07-31d1t07.flac:9bfe30a8dfb4579a110a4525b6c29803
abb1989-07-31d1t08.flac:fbd825848aed85163513b8a03bd13174
abb1989-07-31d1t09.flac:dc071942fb95b19db2fcc5f670374f35
abb1989-07-31d1t10.flac:2dccc863184fcecd5de6de7e151d33d3
abb1989-07-31d1t11.flac:724d10157eeda4eec849b1dbbb991e3c
abb1989-07-31d2t01.flac:d40635b451af3534e6e017d47de05dd2
abb1989-07-31d2t02.flac:a98581afa3c02abf57b21b55876615cf
abb1989-07-31d2t03.flac:93df641667f0377e3f43d5cd41abc335
abb1989-07-31d2t04.flac:c47fb73d9ea538bfc376a9dd6d8ba5c3
abb1989-07-31d2t05.flac:0d347f93094e50cc17bb517819df00f9

- - -  ffp this source

abb1989-07-31s1-01.flac:a3efcbfa5ba37f04f6ecbbf33c109111
abb1989-07-31s1-02.flac:244743dc7fcaaa6c5cdf6d0bc981161e
abb1989-07-31s1-03.flac:aa269fb943c05448c2fafa7563d524b8
abb1989-07-31s1-04.flac:e09595ec6746a3e1c952395271973202
abb1989-07-31s1-05.flac:2b6ffc58ba0a45fd9094ce3e6fef76ff
abb1989-07-31s1-06.flac:36c03e6b8ad4d64e1951f2aba8b30075
abb1989-07-31s1-07.flac:09d802c7488c41dad8761020180790d5
abb1989-07-31s1-08.flac:73f4f5a982623857572e3465ce8f0af1
abb1989-07-31s1-09.flac:616d191b5652e53df7eb84b6a2bf15dd
abb1989-07-31s1-10.flac:65d5b400b3750827558c458ba04758a1
abb1989-07-31s1-11.flac:caf09d2e64a40b6c43f7f5f47673d89f
abb1989-07-31s2-01.flac:30f306ea55d220d19994d969f0a08169
abb1989-07-31s2-02.flac:933971005f028ba1b7a754d447f4982b
abb1989-07-31s2-03.flac:baa42c32db41a5baea6ce42d90002030
abb1989-07-31s2-04.flac:6e7ce9831fa21cd6cf9322f0f36f6550
abb1989-07-31s2-05.flac:f7bf975435839b56b3078f5bb5f394df

Show Checksums
ffp
;flac fingerprints generated by xACT 2.43 on 2018-06-09 11:36:03 +0000

abb1989-07-31s1-01.flac:a3efcbfa5ba37f04f6ecbbf33c109111
abb1989-07-31s1-02.flac:244743dc7fcaaa6c5cdf6d0bc981161e
abb1989-07-31s1-03.flac:aa269fb943c05448c2fafa7563d524b8
abb1989-07-31s1-04.flac:e09595ec6746a3e1c952395271973202
abb1989-07-31s1-05.flac:2b6ffc58ba0a45fd9094ce3e6fef76ff
abb1989-07-31s1-06.flac:36c03e6b8ad4d64e1951f2aba8b30075
abb1989-07-31s1-07.flac:09d802c7488c41dad8761020180790d5
abb1989-07-31s1-08.flac:73f4f5a982623857572e3465ce8f0af1
abb1989-07-31s1-09.flac:616d191b5652e53df7eb84b6a2bf15dd
abb1989-07-31s1-10.flac:65d5b400b3750827558c458ba04758a1
abb1989-07-31s1-11.flac:caf09d2e64a40b6c43f7f5f47673d89f
abb1989-07-31s2-01.flac:30f306ea55d220d19994d969f0a08169
abb1989-07-31s2-02.flac:933971005f028ba1b7a754d447f4982b
abb1989-07-31s2-03.flac:baa42c32db41a5baea6ce42d90002030
abb1989-07-31s2-04.flac:6e7ce9831fa21cd6cf9322f0f36f6550
abb1989-07-31s2-05.flac:f7bf975435839b56b3078f5bb5f394df

Comments
Add Comment
Other Sources (comments)
Unknown AUD > ? > CDR > EAC... (0)
Date User Comment