Browse Collections Artists Sources   Search Dates

Add Show    List Management    Help


Grateful Dead 03/04/81
Club Front, San Rafael, CA
Comments Add Comment    Source Collectors    Add to Collection    Add to Want List    History
Source # 142485 Other Sources
Entered by Matt Vernon
Checksums ffp , flac-md5
Disc Counts 0 / 0
Media Size Compressed: 482.95 MB (506408960 bytes)
Date Circulated
Date Added
07/01/2018
07/01/2018
Source Summary flac16; Recording Info: Master Production Disc > Cassette Master (TDK MA90); Transfer Info: Cassette Master (Nakamichi CR-7A) > Tascam DA-3000 (DSF 1-bit/5.6 MHz) > KORG AudioGate 4 > Adobe Audition CC 2015 > Samplitude Pro X3 Suite > FLAC/24; All Transfers and Mastering By Charlie Miller 
  Archive
Source Information - Download Text | Download Zip
Grateful Dead - March 4, 1981
Club Front - San Rafael, CA
Reckoning Outtakes

Recording Info:
Master Production Disc > Cassette Master (TDK MA90)

Transfer Info:
Cassette Master (Nakamichi CR-7A) > Tascam DA-3000 (DSF 1-bit/5.6 MHz) >
KORG AudioGate 4 > Adobe Audition CC 2015 > Samplitude Pro X3 Suite > FLAC/24
(1 Disc FLAC)

All Transfers and Mastering By Charlie Miller
[email protected]
June 16, 2018

Notes:
-- Thanks to Joe B. Jones for the pitch correction settings
-- This file set is 16 bit at 44.1

Setlist:
01 - Dire Wolf
02 - The Race Is On
03 - Oh Babe, It Ain't No Lie
04 - It Must Have Been The Roses
05 - Dark Hollow
06 - China Doll
07 - I've Been All Around This World
08 - Monkey And The Engineer
09 - Jack-A-Roe
10 - Deep Elem Blues
11 - Cassidy
12 - To Lay Me Down
13 - Rosalie McFall
14 - On The Road Again
15 - Bird Song
16 - Ripple


SHNTOOL OUTPUT:
    length     expanded size    cdr  WAVE problems  fmt   ratio  filename
     3:20.21       35329436 B   ---   --   ---xx   flac  0.6421  01 Dire Wolf.flac
     2:58.59       31538012 B   ---   --   ---xx   flac  0.6540  02 The Race Is On.flac
     6:28.69       68605532 B   ---   --   ---xx   flac  0.6177  03 Oh Babe, It Ain't No Lie.flac
     7:02.13       74471420 B   ---   --   ---xx   flac  0.6070  04 It Must Have Been The Roses.flac
     3:50.54       40699052 B   ---   --   ---xx   flac  0.6225  05 Dark Hollow.flac
     5:19.53       56396300 B   ---   --   ---xx   flac  0.6124  06 China Doll.flac
     4:36.50       48804044 B   ---   --   ---xx   flac  0.5954  07 I've Been All Around This World.flac
     2:35.35       27424364 B   ---   --   ---xx   flac  0.6334  08 Monkey And The Engineer.flac
     4:10.71       44267036 B   ---   --   ---xx   flac  0.6189  09 Jack-A-Roe.flac
     4:54.34       51941612 B   ---   --   ---xx   flac  0.6443  10 Deep Elem Blues.flac
     4:31.69       47966732 B   ---   --   ---xx   flac  0.6435  11 Cassidy.flac
     8:59.44       95183132 B   ---   --   ---xx   flac  0.6074  12 To Lay Me Down.flac
     2:55.49       30985292 B   ---   --   ---xx   flac  0.6254  13 Rosalie McFall.flac
     3:12.65       34021724 B   ---   --   ---xx   flac  0.6441  14 On The Road Again.flac
     7:38.07       80807708 B   ---   --   ---xx   flac  0.6089  15 Bird Song.flac
     4:24.26       46630796 B   ---   --   ---xx   flac  0.6247  16 Ripple.flac
    77:00.44      815072192 B                            0.6213  (16 files)



Show Checksums
ffp
01 Dire Wolf.flac:e0fe91ed337b79e866ff9ce5cd43222b
02 The Race Is On.flac:e4de52a841a0b3d4b051b09964a7d403
03 Oh Babe, It Ain't No Lie.flac:7476a766a3d8e3ad7d293fdf5d69b0c9
04 It Must Have Been The Roses.flac:ba32320a3a9782f6bc68075220be6959
05 Dark Hollow.flac:a3ae1c11f17662b9d89ef2bcadc461a9
06 China Doll.flac:a7884421bb1b3565997bc5c4eac62343
07 I've Been All Around This World.flac:c224ba28e3c16ea8e4d76d94c005dedc
08 Monkey And The Engineer.flac:54ca5ad5a17dd7bc0ba9298e8436d046
09 Jack-A-Roe.flac:3dadd055d1a9191552aad9108c929806
10 Deep Elem Blues.flac:44be08064869fd58d105ccd8b7644833
11 Cassidy.flac:57e056ffb1eb8dd7db2669364c0a9f54
12 To Lay Me Down.flac:d7744d3d8c3a4ef8f8852d4bdcf322a3
13 Rosalie McFall.flac:5c7c04ed3e33cfc59175d71b8cdd8847
14 On The Road Again.flac:11245c0d5ceac1c0481aac3c05a85460
15 Bird Song.flac:79b52537c6c18ae4a7db37c2bf37eff4
16 Ripple.flac:01a7c65d4230c2dbeb53d2f97de2cdc1
flac-md5
b03ecf98783b4adf6097b01510c3fd4b *01 Dire Wolf.flac
96cb41f2f2a7062de1c5bb2bbb7a1776 *02 The Race Is On.flac
09a51ad9e412a4243ad0aabdc21ea2c3 *03 Oh Babe, It Ain't No Lie.flac
59b1b324895f2a4a5f25b8ac3b896923 *04 It Must Have Been The Roses.flac
3be2c14b16f2848e009fbf3eefcdd139 *05 Dark Hollow.flac
b662226f1be9c201565c4f5e14df26d5 *06 China Doll.flac
bd5acce243fecdc5046ae2c26ae8b202 *07 I've Been All Around This World.flac
6779a591da05229ea13d744513731b92 *08 Monkey And The Engineer.flac
82082a466f245eb541a224aa9f850bbb *09 Jack-A-Roe.flac
8439c45773c5e43e475373318dc7a9f7 *10 Deep Elem Blues.flac
ac29b6f82f9a26564672de20a37edffe *11 Cassidy.flac
03ab4ad791192cc5ef6380d87529a3ec *12 To Lay Me Down.flac
eb5b66c0daa42af8ac2d5485e659341f *13 Rosalie McFall.flac
47716cfeba3f2dfeb8bce7eebf161a1e *14 On The Road Again.flac
c58e033fef3ddc3cdd5c10b3c950d0fe *15 Bird Song.flac
5ee26930c0d3d2e5c6e45ff88afb243e *16 Ripple.flac

Comments
Add Comment
Other Sources (comments)
flac24; Recording... (0) flac24; Lineage: The... (0)
Date User Comment