Browse Collections Artists Sources   Search Dates

Add Show    List Management    Help


Grateful Dead 02/17/81
Club Front, San Rafael, CA
Comments Add Comment    Source Collectors    Add to Collection    Add to Want List    History
Source # 142487 Other Sources
Entered by Matt Vernon
Checksums ffp , flac-md5
Disc Counts 0 / 0
Media Size Compressed: 469.95 MB (492777472 bytes)
Date Circulated
Date Added
07/01/2018
07/01/2018
Source Summary flac16; Recording Info: Rough Mixes > Cassette (TDK SA-X90); Transfer Info: Cassette (Nakamichi CR-7A) > Tascam DA-3000 (DSF 1-bit/5.6 MHz) > KORG AudioGate 4 > Adobe Audition CC 2015 > Samplitude Pro X3 Suite > FLAC/24; All Transfers and Mastering By Charlie Miller 
  Archive
Source Information - Download Text | Download Zip
Grateful Dead - February 17, 1981
Club Front - San Rafael, CA
Reckoning Rough Mixes

Recording Info:
Rough Mixes > Cassette (TDK SA-X90)

Transfer Info:
Cassette (Nakamichi CR-7A) > Tascam DA-3000 (DSF 1-bit/5.6 MHz) >
KORG AudioGate 4 > Adobe Audition CC 2015 > Samplitude Pro X3 Suite > FLAC/24
(1 Disc FLAC)

All Transfers and Mastering By Charlie Miller
[email protected]
June 16, 2018

Notes:
-- This was a cassette made for the band to see if they liked the song order
-- Thanks to Joe B. Jones for the pitch correction settings
-- This file set is 16 bit at 44.1

Setlist:
01 - Dire Wolf
02 - The Race Is On
03 - Oh Babe, It Ain't No Lie
04 - It Must Have Been The Roses
05 - Dark Hollow
06 - China Doll
07 - I've Been All Around This World
08 - Monkey And The Engineer
09 - Jack-A-Roe
10 - Deep Elem Blues
11 - Cassidy
12 - To Lay Me Down
13 - Rosalie McFall
14 - On The Road Again
15 - Bird Song
16 - Ripple


SHNTOOL OUTPUT:
    length     expanded size    cdr  WAVE problems  fmt   ratio  filename
     3:15.70       34562684 B   ---   --   ---xx   flac  0.6325  01 Dire Wolf.flac
     2:58.54       31526252 B   ---   --   ---xx   flac  0.6313  02 The Race Is On.flac
     6:23.31       67634156 B   ---   --   ---xx   flac  0.5979  03 Oh Babe, It Ain't No Lie.flac
     6:56.60       73523564 B   ---   --   ---xx   flac  0.5832  04 It Must Have Been The Roses.flac
     3:56.09       41651612 B   ---   --   ---xx   flac  0.6011  05 Dark Hollow.flac
     5:31.52       58510748 B   ---   --   ---xx   flac  0.6056  06 China Doll.flac
     4:34.55       48463004 B   ---   --   ---xx   flac  0.5746  07 I've Been All Around This World.flac
     2:29.74       26457692 B   ---   --   ---xx   flac  0.6182  08 Monkey And The Engineer.flac
     4:15.62       45127868 B   ---   --   ---xx   flac  0.6139  09 Jack-A-Roe.flac
     4:51.21       51381836 B   ---   --   ---xx   flac  0.6349  10 Deep Elem Blues.flac
     4:29.32       47526908 B   ---   --   ---xx   flac  0.6580  11 Cassidy.flac
     8:58.55       95032604 B   ---   --   ---xx   flac  0.5779  12 To Lay Me Down.flac
     2:56.08       31065260 B   ---   --   ---xx   flac  0.6063  13 Rosalie McFall.flac
     3:12.43       33969980 B   ---   --   ---xx   flac  0.6251  14 On The Road Again.flac
     7:29.46       79311836 B   ---   --   ---xx   flac  0.6032  15 Bird Song.flac
     4:22.48       46329740 B   ---   --   ---xx   flac  0.6164  16 Ripple.flac
    76:43.45      812075744 B                            0.6068  (16 files)



Show Checksums
ffp
01 Dire Wolf.flac:ca23fe89a6b7554a241185c869bb25b7
02 The Race Is On.flac:c5f3977fc60e30fba31c3ceca524c640
03 Oh Babe, It Ain't No Lie.flac:10088562a2f241063c42edb63236a169
04 It Must Have Been The Roses.flac:db8123123ec95dc3e2a55f5238743087
05 Dark Hollow.flac:0eb601bc60035e9ffa94645224060453
06 China Doll.flac:1c73013bbe3c09075a718e73a84b752a
07 I've Been All Around This World.flac:0e72f015336568dadd7f5d3f60c71051
08 Monkey And The Engineer.flac:9dd213d405dfbf25a25d394338feeded
09 Jack-A-Roe.flac:b971d373bcedea0119a6a8604f3cb9cf
10 Deep Elem Blues.flac:aadee52179b5c5c9f07d182fcb2d154f
11 Cassidy.flac:967cb7a70521b5ef0b2c2bf69c6f37ef
12 To Lay Me Down.flac:2df979c632dd0d7fcf12d38c65535b08
13 Rosalie McFall.flac:d2c7c8aac7f9c7bb106bf48fdff52c9f
14 On The Road Again.flac:6c1ab3d2bd872fe89f7d78a2efa85691
15 Bird Song.flac:ff4e132b9dfe0c91285e23da9188f2c1
16 Ripple.flac:315b390a396f07b41de79191b523000a
flac-md5
0c99464f07550ad68ad5ff236f4d3ed5 *01 Dire Wolf.flac
f4e9c6a7134af57b06926a928e9e2887 *02 The Race Is On.flac
74def1c7aa3b6b0aa8ca982e2e30d5c1 *03 Oh Babe, It Ain't No Lie.flac
3b1372a51c9e6bf507fa55e880fa8d7c *04 It Must Have Been The Roses.flac
b345da0c5423461c253ae44cf785d919 *05 Dark Hollow.flac
652cc757f7979c6e984e9e08423e94e9 *06 China Doll.flac
3f5c303293fdc68d00a98381c2bceaae *07 I've Been All Around This World.flac
ad9259a0103f9f5cdb3d663cd5f9441e *08 Monkey And The Engineer.flac
389fb84b9c2877ce25d4226bd073d9cf *09 Jack-A-Roe.flac
e5fb97e20014a5b29fae3a87801383e2 *10 Deep Elem Blues.flac
e43989ca56da9a5d7ab4f5cd4546bdec *11 Cassidy.flac
162d4b2ee5053443d2e7912a9bfdc34f *12 To Lay Me Down.flac
13835d87c9385b82d08b97a053edae4c *13 Rosalie McFall.flac
93a39e55f54019f66b55773c34e093eb *14 On The Road Again.flac
e3fc7d3fc8c4bfcd385c845f30db7d98 *15 Bird Song.flac
3116d07499489d65800e956c706ee12d *16 Ripple.flac

Comments
Add Comment
Other Sources (comments)
flac24; Recording... (0)
Date User Comment