Browse Collections Artists Sources   Search Dates

Add Show    List Management    Help


Grateful Dead 10/01/89
Shoreline Amphitheatre, Mountain View, CA
Comments Add Comment    Source Collectors    Add to Collection    Add to Want List    History
Source # 142504 Other Sources
Entered by Matt Vernon
Checksums ffp , flac-md5
Disc Counts 0 / 0
Media Size
Date Circulated
Date Added
07/03/2018
07/03/2018
Source Summary flac16/48kHz; Source Info: Ted Mattes' Master Audience Dat; Schoeps CMC4/MK2S mics spaced on stands, OTS > Aerco preamp > Panasonic SV-250 (16-bit/48k); Transfer Info: Dat (Sony PCM-R500)> Tascam DA-3000 (16-bit/48k) > .wav(16-bit/48k)> Adobe Audition 3.0 > TLH 1648 
  Archive
Source Information - Download Text | Download Zip
Grateful Dead
Shoreline Amphitheatre
Mountain View, CA
Sunday  October 1st, 1989

Source Info:
Ted Mattes' Master Audience Dat; Schoeps CMC4/MK2S mics spaced on stands, OTS > Aerco preamp > Panasonic SV-250 (16-bit/48k)

Transfer Info:
Dat (Sony PCM-R500)> Tascam DA-3000 (16-bit/48k) > .wav(16-bit/48k)> Adobe Audition 3.0 > TLH 1648



Notes:
- Thanks to Ted Mattes for the master Dat recording
- Thanks to Charlie Miller for the transfer and coordinating this effort
- Other One space included in "The Other One"

Mastered by Scott Clugston
July 1, 2018

Set One:
t01 - Crowd
t02 - Jack Straw
t03 - Ramble On Rose
t04 - Walkin' Blues
t05 - Built To Last
t06 - When I Paint My Masterpiece
t07 - Just A Little Light
t08 - Cassidy >
t09 - Don't Ease Me In

Set Two:
t10 - Crowd
t11 - Hell In A Bucket >
t12 - Scarlet Begonias >
t13 - Man Smart (Woman Smarter)
t14 - He's Gone >
t15 - Drums >
t16 - Space >
t17 - The Other One >
t18 - Wharf Rat >
t19 - Turn On Your Lovelight
t20 - Encore Break
t21 - Knockin' On Heaven's Door


    length     expanded size    cdr  WAVE problems  fmt   ratio  filename
     3:31.080      40527404 B   cxx   --   ---xx   flac  0.3659  gd89-10-01 t01 Crowd.flac
     7:44.867      89254444 B   cxx   --   ---xx   flac  0.4651  gd89-10-01 t02 Jack Straw.flac
     9:24.480     108380204 B   cxx   --   ---xx   flac  0.4442  gd89-10-01 t03 Ramble On Rose.flac
     8:04.067      92940844 B   cxx   --   ---xx   flac  0.4328  gd89-10-01 t04 Walkin' Blues.flac
     6:23.880      73705004 B   cxx   --   ---xx   flac  0.4724  gd89-10-01 t05 Built To Last.flac
     7:32.600      86899244 B   cxx   --   ---xx   flac  0.4476  gd89-10-01 t06 When I Paint My Masterpiece.flac
     5:57.067      68556844 B   cxx   --   ---xx   flac  0.4845  gd89-10-01 t07 Just A Little Light.flac
     7:00.587      80752684 B   cxx   --   ---xx   flac  0.4875  gd89-10-01 t08 Cassidy.flac
     4:02.320      46525484 B   cxx   --   ---xx   flac  0.5333  gd89-10-01 t09 Don't Ease Me In.flac
     3:12.053      36874284 B   cxx   --   ---xx   flac  0.3384  gd89-10-01 t10 Crowd.flac
     6:31.840      75233324 B   cxx   --   ---xx   flac  0.4823  gd89-10-01 t11 Hell In A Bucket.flac
    10:55.200     125798444 B   cxx   --   ---xx   flac  0.4710  gd89-10-01 t12 Scarlet Begonias.flac
     8:14.813      95004204 B   cxx   --   ---xx   flac  0.4710  gd89-10-01 t13 Man Smart (Woman Smarter).flac
    12:53.813     148572204 B   cxx   --   ---xx   flac  0.4285  gd89-10-01 t14 He's Gone.flac
     6:09.200      70886444 B   cxx   --   ---xx   flac  0.3846  gd89-10-01 t15 Drums.flac
    10:02.387     115658284 B   cxx   --   ---xx   flac  0.3315  gd89-10-01 t16 Space.flac
    10:35.760     122065964 B   cxx   --   ---xx   flac  0.4298  gd89-10-01 t17 The Other One.flac
    10:29.173     120801324 B   cxx   --   ---xx   flac  0.4165  gd89-10-01 t18 Wharf Rat.flac
     7:36.093      87569964 B   cxx   --   ---xx   flac  0.4569  gd89-10-01 t19 Turn On Your Lovelight.flac
     0:33.067       6348844 B   cxx   --   ---xx   flac  0.3342  gd89-10-01 t20 Encore Break.flac
     7:09.261      82418184 B   cxx   --   ---xx   flac  0.4142  gd89-10-01 t21 Knockin' On Heaven's Door.flac
   154:03.608    1774773624 B                            0.4377  (21 files)


Show Checksums
ffp
gd89-10-01 t01 Crowd.flac:3f34937562da1c5d2c151b4f5a29320a
gd89-10-01 t02 Jack Straw.flac:d24179deaac0a38637e4f8347161d79d
gd89-10-01 t03 Ramble On Rose.flac:649d2297982ee374cc4ad09cfa49fa2b
gd89-10-01 t04 Walkin' Blues.flac:a4ba52a213cfccf92f6644a33534f940
gd89-10-01 t05 Built To Last.flac:f788ae6d4d96b58ba90a901d37907e95
gd89-10-01 t06 When I Paint My Masterpiece.flac:45664ce64540056944429df6278ee3dc
gd89-10-01 t07 Just A Little Light.flac:75f1b1fd581ca19313414d20ed0c9264
gd89-10-01 t08 Cassidy.flac:29f73560444d55f47b3c541e74b8d05b
gd89-10-01 t09 Don't Ease Me In.flac:6e2415cc94cf2a51ecce2e82436349e8
gd89-10-01 t10 Crowd.flac:bad2a5c9c59f178a91ef9b33eacade9a
gd89-10-01 t11 Hell In A Bucket.flac:f2b04f750189b700f3d07c341e6acde9
gd89-10-01 t12 Scarlet Begonias.flac:bf988bfee710fda1068ca8cd26e73a4a
gd89-10-01 t13 Man Smart (Woman Smarter).flac:82c42181aa2800bf8d54078207e20cfb
gd89-10-01 t14 He's Gone.flac:e5796a6f9708d371ff3ae6a2883d141c
gd89-10-01 t15 Drums.flac:3eb6e54c96aaf4b45872dfacabe723a4
gd89-10-01 t16 Space.flac:e343d8824274d3b88bfa6999cda0b672
gd89-10-01 t17 The Other One.flac:30f916d45bb83270f665f3c614be4909
gd89-10-01 t18 Wharf Rat.flac:0b094d85ab2a6f4546ac2e7ab01b7e42
gd89-10-01 t19 Turn On Your Lovelight.flac:bd4a92381a4dbeb52931b07f8fcd8aeb
gd89-10-01 t20 Encore Break.flac:8e27d7eed278913b276b23c49dbd3b9a
gd89-10-01 t21 Knockin' On Heaven's Door.flac:6167e6e3d9fd9766148a633cc8d21d41
flac-md5
a76c49813d36fe17ca8c86240b81b094 *gd89-10-01 t01 Crowd.flac
27d800b7938204a157cbb41acc088ee0 *gd89-10-01 t02 Jack Straw.flac
847e52004ea6f005807a05bfe41e1f87 *gd89-10-01 t03 Ramble On Rose.flac
50a9bb2a38bf9a19a02358a0af24edf4 *gd89-10-01 t04 Walkin' Blues.flac
1972b276f3c2e8f74abab81e909feca2 *gd89-10-01 t05 Built To Last.flac
8db329874ea69d6cd58c38965c60ad85 *gd89-10-01 t06 When I Paint My Masterpiece.flac
275be787c7c267d85df221c9f82904d1 *gd89-10-01 t07 Just A Little Light.flac
993e899300f8a20ea2d028218d866ae1 *gd89-10-01 t08 Cassidy.flac
86549931652903742bce10892cf3c52e *gd89-10-01 t09 Don't Ease Me In.flac
c843bb3e4b0364fe8be5fbc84fe7511f *gd89-10-01 t10 Crowd.flac
2f4dbdda04aa1524f0bb46c258724007 *gd89-10-01 t11 Hell In A Bucket.flac
ddccbe41725a44320164e52e34e58e45 *gd89-10-01 t12 Scarlet Begonias.flac
3d26e98b70956afcd8ae0c645822e586 *gd89-10-01 t13 Man Smart (Woman Smarter).flac
9aea45c03d18e5e442f3ac753f1019b1 *gd89-10-01 t14 He's Gone.flac
c9e828ba76c835d00c01c3e5a05f33f0 *gd89-10-01 t15 Drums.flac
9fe5c3f4f8dd0f159a7de861c70b2194 *gd89-10-01 t16 Space.flac
cfe380300d41f3f8b60166d151b32ee5 *gd89-10-01 t17 The Other One.flac
9d3968bba710686560a3c67dc96e892a *gd89-10-01 t18 Wharf Rat.flac
8234b8f6405ba9d9312b21359663ed08 *gd89-10-01 t19 Turn On Your Lovelight.flac
99835e37e5a9521c11f56a7b3b6f33be *gd89-10-01 t20 Encore Break.flac
e9018a2560f28ae5bdc32a0bdd736313 *gd89-10-01 t21 Knockin' On Heaven's Door.flac

Comments
Add Comment
Other Sources (comments)
AUD>MC>C>CDR; Seeded to... (1) flac16; Unknown SBD... (0) flac16; Recording... (1) flac16; Set 2... (0) flac16; Recording... (0) flac24; Recording... (0) flac16; Recording... (0)
Date User Comment