Browse Collections Artists Sources   Search Dates

Add Show    List Management    Help


Allman Brothers Band 01/28/92
Shinen-Kaikan, Sapporo, Japan
Comments Add Comment    Source Collectors    Add to Collection    Add to Want List    History
Source # 142505 Other Sources
Entered by Matt Vernon
Checksums ffp
Disc Counts 0 / 0
Media Size
Date Circulated
Date Added

07/03/2018
Source Summary flac16 44.1khz Source: SBD > CM > CS > WAV > CDR X 2 > EAC > WAV > FLAC Seed by Coot CD Mastering by Sang Sonic enhancements by DB Helm FLAC Encoding by Ron B 
Source Information - Download Text | Download Zip
Allman Brothers Band
1/28/92
Shinen-Kaikan
Sapporo, Japan

Source: SBD > CM > CS > WAV > CDR X 2 > EAC > WAV  > FLAC
Seed by Coot
CD Mastering by Sang
Sonic enhancements by DB Helm
FLAC Encoding by Ron B


Disc 1
1. Statesboro Blues
2. End Of The Line
3. Blue Sky
4. Nobody Knows
5. Southbound
6. Seven Turns
7. Midnight Rider
8. Come On In My Kitchen
9. Melissa
10. Hoochie Coochie Man


Disc 2
1. Get On With Your Life
2. In Memory of Elizabeth Reed
3. Revival
4. One Way Out
5. Whipping Post

this source

    length     expanded size    cdr  WAVE problems  fmt   ratio  filename
     7:56.66       84121676 B   ---   --   ---xx   flac  0.6128  abb1992-01-28d1t01.flac
     6:33.68       69485180 B   ---   --   ---xx   flac  0.6242  abb1992-01-28d1t02.flac
     8:05.73       85725740 B   ---   --   ---xx   flac  0.6555  abb1992-01-28d1t03.flac
    13:39.22      144523388 B   ---   --   ---xx   flac  0.6623  abb1992-01-28d1t04.flac
     7:19.07       77456108 B   ---   --   ---xx   flac  0.6350  abb1992-01-28d1t05.flac
     4:46.07       50466908 B   ---   --   ---xx   flac  0.4621  abb1992-01-28d1t06.flac
     3:39.56       38763356 B   ---   --   ---xx   flac  0.4536  abb1992-01-28d1t07.flac
     6:11.06       65458556 B   ---   --   ---xx   flac  0.4305  abb1992-01-28d1t08.flac
     5:36.10       59293964 B   ---   --   ---xx   flac  0.4553  abb1992-01-28d1t09.flac
     9:00.31       95328956 B   ---   --   ---xx   flac  0.5872  abb1992-01-28d1t10.flac
     8:05.08       85572860 B   ---   --   ---xx   flac  0.5870  abb1992-01-28d2t01.flac
    20:41.38      219001820 B   ---   --   ---xx   flac  0.6367  abb1992-01-28d2t02.flac
     6:17.67       66660428 B   ---   --   ---xx   flac  0.6833  abb1992-01-28d2t03.flac
     9:10.21       97069436 B   ---   --   ---xx   flac  0.6524  abb1992-01-28d2t04.flac
    13:16.21      140463836 B   ---   --   ---xx   flac  0.6690  abb1992-01-28d2t05.flac
   130:19.51     1379392212 B                            0.6094  (15 files)

shntool for id = 85939

    length     expanded size    cdr  WAVE problems  fmt   ratio  filename
     7:56.66       84121676 B   ---   --   ---xx   flac  0.6070  abb1992-01-28d1t01.flac
     6:33.68       69485180 B   ---   --   ---xx   flac  0.6234  abb1992-01-28d1t02.flac
     8:05.73       85725740 B   ---   --   ---xx   flac  0.6550  abb1992-01-28d1t03.flac
    13:39.22      144523388 B   ---   --   ---xx   flac  0.6614  abb1992-01-28d1t04.flac
     7:19.07       77456108 B   ---   --   ---xx   flac  0.6344  abb1992-01-28d1t05.flac
     4:46.07       50466908 B   ---   --   ---xx   flac  0.4619  abb1992-01-28d1t06.flac
     3:39.56       38763356 B   ---   --   ---xx   flac  0.4533  abb1992-01-28d1t07.flac
     6:11.06       65458556 B   ---   --   ---xx   flac  0.4302  abb1992-01-28d1t08.flac
     5:36.10       59293964 B   ---   --   ---xx   flac  0.4550  abb1992-01-28d1t09.flac
     9:00.41       95352476 B   ---   --   ---xx   flac  0.5866  abb1992-01-28d1t10.flac
     8:05.08       85572860 B   ---   --   ---xx   flac  0.5682  abb1992-01-28d2t01.flac
    20:41.38      219001820 B   ---   --   ---xx   flac  0.6363  abb1992-01-28d2t02.flac
     6:17.67       66660428 B   ---   --   ---xx   flac  0.6831  abb1992-01-28d2t03.flac
     9:10.21       97069436 B   ---   --   ---xx   flac  0.6516  abb1992-01-28d2t04.flac
    13:16.31      140487356 B   ---   --   ---xx   flac  0.6684  abb1992-01-28d2t05.flac
   130:19.71     1379439252 B                            0.6074  (15 files)




Show Checksums
ffp
abb1992-01-28d1t01.flac:636fa94b870dc65215e185b7b1bba957
abb1992-01-28d1t02.flac:29797fd9df0c71f96e8f9e34c8913425
abb1992-01-28d1t03.flac:5cf256ca40ac941f8a0a8092b8d8fe72
abb1992-01-28d1t04.flac:898f3905bf0fcf4b525c7f769832ae8d
abb1992-01-28d1t05.flac:ce2931cbc3350f68c78815219e599946
abb1992-01-28d1t06.flac:b1c42a0e222f0aa536f244d132ca08cd
abb1992-01-28d1t07.flac:d7a1788bc981fe38570ac30bd508857a
abb1992-01-28d1t08.flac:ea51c8ca601dd03fba39195acfffc0e1
abb1992-01-28d1t09.flac:9260410115970861a232e8f4cd102a3c
abb1992-01-28d1t10.flac:81092c0c545b17954b354293ab302b94
abb1992-01-28d2t01.flac:d5f9123bca97184331170b08512beb58
abb1992-01-28d2t02.flac:fc63f1660d72994fb125bf1a369eeb25
abb1992-01-28d2t03.flac:b1693de836afb3b1b726b3b31846d408
abb1992-01-28d2t04.flac:b2525359b1922c5dd1d16ab4181def86
abb1992-01-28d2t05.flac:f38f9e9ae7d3c70616005d5bb0a9ecf4

Comments
Add Comment
Other Sources (comments)
Source: SBD > CM > CS > WAV... (0)
Date User Comment