Browse Collections Artists Sources   Search Dates

Add Show    List Management    Help


Allman Brothers Band 09/29/89
Beacon Theater, New York, NY
Comments Add Comment    Source Collectors    Add to Collection    Add to Want List    History
Source # 142506 Other Sources
Entered by Matt Vernon
Checksums ffp
Disc Counts 0 / 0
Media Size
Date Circulated
Date Added

07/03/2018
Source Summary flac16 44.1khz Source: Unknown (common parent with shnid 116007) 
Source Information - Download Text | Download Zip
The Allman Brothers Band
Sep 29, 1989 (Fri)
Beacon Theatre
New York, New York

Source: Unknown (likely common parent with shnid 116007)

d1t01. Don't Want You No More
d1t02. Not My Cross To Bear
d1t03. Statesboro Blues
d1t04. You Don't Love Me
d1t05. Please Call Home
d1t06. Blue Sky
d1t07. I’m No Angel
d1t08. Trouble No More
d1t09. Johnny Neal Harp Intro
d1t10. Blues Ain't Nothin'
d1t11. Duane's Tune
d1t12. Southbound
d2t01. In Memory of Elizabeth Reed
d2t02. Stormy Monday
d2t03. One Way Out
d2t04. Just Before the Bullets Fly
d2t05. Melissa
d2t06. Dreams
d3t01. Jessica
d3t02. Les Brers In A Minor
d3t03. Drums
d3t04. Bass > Les Brers In A Minor
d3t05. Whipping Post

shntool this source

    length     expanded size    cdr  WAVE problems  fmt   ratio  filename
     5:37.36       59531516 B   ---   --   ---xx   flac  0.4785  abb1989-09-29d1t01.flac
     5:32.05       58576604 B   ---   --   ---xx   flac  0.4961  abb1989-09-29d1t02.flac
     6:43.27       71152748 B   ---   --   ---xx   flac  0.5239  abb1989-09-29d1t03.flac
     6:40.58       70696460 B   ---   --   ---xx   flac  0.5225  abb1989-09-29d1t04.flac
     5:55.42       62720828 B   ---   --   ---xx   flac  0.5111  abb1989-09-29d1t05.flac
     6:32.58       69285260 B   ---   --   ---xx   flac  0.5299  abb1989-09-29d1t06.flac
     4:18.00       45511244 B   ---   --   ---xx   flac  0.5412  abb1989-09-29d1t07.flac
     3:43.25       39396044 B   ---   --   ---xx   flac  0.5336  abb1989-09-29d1t08.flac
     1:46.49       18813692 B   ---   --   ---xx   flac  0.5168  abb1989-09-29d1t09.flac
     4:50.53       51280700 B   ---   --   ---xx   flac  0.5287  abb1989-09-29d1t10.flac
     7:05.58       75106460 B   ---   --   ---xx   flac  0.5212  abb1989-09-29d1t11.flac
    10:37.01      112369196 B   ---   --   ---xx   flac  0.5226  abb1989-09-29d1t12.flac
    15:39.57      165773708 B   ---   --   ---xx   flac  0.5410  abb1989-09-29d2t01.flac
    10:27.61      110746316 B   ---   --   ---xx   flac  0.5450  abb1989-09-29d2t02.flac
     9:02.61       95752316 B   ---   --   ---xx   flac  0.5500  abb1989-09-29d2t03.flac
     7:32.21       79782236 B   ---   --   ---xx   flac  0.5456  abb1989-09-29d2t04.flac
     6:05.70       64550684 B   ---   --   ---xx   flac  0.5363  abb1989-09-29d2t05.flac
    10:29.38      111045020 B   ---   --   ---xx   flac  0.5547  abb1989-09-29d2t06.flac
     9:05.44       96241532 B   ---   --   ---xx   flac  0.5668  abb1989-09-29d3t01.flac
     4:03.24       42921692 B   ---   --   ---xx   flac  0.5617  abb1989-09-29d3t02.flac
    12:02.28      127426700 B   ---   --   ---xx   flac  0.5464  abb1989-09-29d3t03.flac
     2:59.44       31679132 B   ---   --   ---xx   flac  0.5522  abb1989-09-29d3t04.flac
    10:53.66      115344476 B   ---   --   ---xx   flac  0.5710  abb1989-09-29d3t05.flac
   167:46.26     1775704564 B                            0.5378  (23 files)


shntool from 116007

    length     expanded size    cdr  WAVE problems  fmt   ratio  filename
     5:36.60       59411564 B   ---   --   ---xx   flac  0.5486  disc101-don't want you no more.flac
     5:32.05       58576604 B   ---   --   ---xx   flac  0.5454  disc102-not my cross to bear.flac
     6:43.27       71152748 B   ---   --   ---xx   flac  0.5630  disc103-statesboro blues.flac
     6:40.58       70696460 B   ---   --   ---xx   flac  0.5654  disc104-you don't love me.flac
     5:55.42       62720828 B   ---   --   ---xx   flac  0.5534  disc105-please call home.flac
     6:32.58       69285260 B   ---   --   ---xx   flac  0.5594  disc106-blue sky.flac
     4:18.00       45511244 B   ---   --   ---xx   flac  0.5669  disc107-i'm no angel.flac
     3:43.25       39396044 B   ---   --   ---xx   flac  0.5618  disc108-trouble no more.flac
     1:46.49       18813692 B   ---   --   ---xx   flac  0.5569  disc109-johnny neal harp intro.flac
     4:50.53       51280700 B   ---   --   ---xx   flac  0.5654  disc110-blues ain't nothin'.flac
     7:05.58       75106460 B   ---   --   ---xx   flac  0.5621  disc111-duane's tune.flac
    10:08.21      107300636 B   ---   --   ---xx   flac  0.5667  disc112-southbound.flac
    15:38.42      165562028 B   ---   --   ---xx   flac  0.5770  disc201-in memory of elizabeth reed.flac
    10:27.61      110746316 B   ---   --   ---xx   flac  0.5841  disc202-stormy monday.flac
     9:02.61       95752316 B   ---   --   ---xx   flac  0.5926  disc203-one way out.flac
     7:32.21       79782236 B   ---   --   ---xx   flac  0.5838  disc204-just before the bullets fly.flac
     6:05.70       64550684 B   ---   --   ---xx   flac  0.5773  disc205-melissa.flac
    10:27.07      110619308 B   ---   --   ---xx   flac  0.5947  disc206-dreams.flac
     9:05.44       96241532 B   ---   --   ---xx   flac  0.5987  disc301-jessica.flac
     4:03.24       42921692 B   ---   --   ---xx   flac  0.5947  disc302-les brers in a minor.flac
    12:02.28      127426700 B   ---   --   ---xx   flac  0.5866  disc303-drums.flac
     2:59.44       31679132 B   ---   --   ---xx   flac  0.5897  disc304-bass-les brers in a minor.flac
    10:53.67      115346828 B   ---   --   ---xx   flac  0.6032  disc305-whipping post.flac
   167:13.25     1769881012 B                            0.5770  (23 files)




Show Checksums
ffp
abb1989-09-29d1t01.flac:fc356834e2679492432240bd83faa160
abb1989-09-29d1t02.flac:2f65ed324f0660210a7daba8710264b3
abb1989-09-29d1t03.flac:cd8b47033d8f210cbf8d063b2bf14718
abb1989-09-29d1t04.flac:e862174c3615c1845cfb1ffb604db787
abb1989-09-29d1t05.flac:2726db0d4e4bc758c462a888c8dc70ff
abb1989-09-29d1t06.flac:2e9dfc58ae2b3b71e594d01a944831b1
abb1989-09-29d1t07.flac:03060ee8989732ae62213d0861a5d951
abb1989-09-29d1t08.flac:cfb0808b45f61ef459ca47740afd91df
abb1989-09-29d1t09.flac:3dae3c0e441febc21c845be9e17b2cfb
abb1989-09-29d1t10.flac:9695ea23d39be9ce14130f9afca2deb5
abb1989-09-29d1t11.flac:03ad8034f6fdddd6f24035a7542a8c09
abb1989-09-29d1t12.flac:f31a5873ca70f9e4134b40ae9d98afbc
abb1989-09-29d2t01.flac:6bcfddf3707ef2173abaef507d71c553
abb1989-09-29d2t02.flac:587eabf472ce52f378ede89dfd67a04b
abb1989-09-29d2t03.flac:a5e9e26acca20e3d56afc095d8cd25e4
abb1989-09-29d2t04.flac:0b6c69236d032d405b34a73123fd00b0
abb1989-09-29d2t05.flac:8bc256f6a0a6dd82b572771c710903b1
abb1989-09-29d2t06.flac:6de70200b333629eb09a33c81b70af8c
abb1989-09-29d3t01.flac:42f70e57eb37c2098150c1ab4c586e07
abb1989-09-29d3t02.flac:5073dc34dff1e0509aec0028a18875f8
abb1989-09-29d3t03.flac:c36e7686eec04f03135fe2891fa316c9
abb1989-09-29d3t04.flac:6febe697b048ca7bf59163b957eec98f
abb1989-09-29d3t05.flac:05b91f6f59a54ae4634e299b9857dbcf

Comments
Add Comment
Other Sources (comments)
Unknown aud > ? > FLAC (0)
Date User Comment