Browse Collections Artists Sources   Search Dates

Add Show    List Management    Help


Grateful Dead 10/12/89
Meadowlands Arena, East Rutherford, NJ
Comments Add Comment    Source Collectors    Add to Collection    Add to Want List    History
Source # 142511 Other Sources
Entered by Matt Vernon
Checksums ffp , flac-md5
Disc Counts 0 / 0
Media Size
Date Circulated
Date Added
07/04/2018
07/04/2018
Source Summary flac16/48kHz; Source Info: Ted Mattes' Master (FOB)Audience Dat; Schoeps CMC4/MK4 mics @ 110 degrees, ORTF, Schoeps t-bar, hand held, chin high > Monster Cable Interlinks > Oade capacitor P/S > Panasonic SV-250 (16-bit/48k); Transfer Info: Master Dat (Sony PCM-R500)> Tascam DA-3000 (16-bit/48k) > .wav(16-bit/48k)> Adobe Audition 3.0 > TLH 1648 
  Archive
Source Information - Download Text | Download Zip
Grateful Dead
Meadowlands Arena
East Rutherford, NJ
Thursday October 12th, 1989

Source Info:
Ted Mattes' Master (FOB)Audience Dat; Schoeps CMC4/MK4 mics @ 110 degrees, ORTF, Schoeps t-bar, hand held, chin high > Monster Cable Interlinks > Oade capacitor P/S > Panasonic SV-250 (16-bit/48k)

Transfer Info:
Master Dat (Sony PCM-R500)> Tascam DA-3000 (16-bit/48k) > .wav(16-bit/48k)> Adobe Audition 3.0 > TLH 1648



Notes:
- Thanks to Ted Mattes for the master Dat recording
- Thanks to Charlie Miller for the transfer and coordinating this effort
- Thanks to hansokolow for the shnid96790 matrix source which supplies a 0:19 patch in "Blow Away"
- Other One space included in "The Other One"

Mastered by Scott Clugston
July 3, 2018

Set One:
s1t01 - Crowd
s1t02 - Hell In A Bucket >
s1t03 - Sugaree
s1t04 - Blow Away
s1t05 - Tennessee Jed
s1t06 - Queen Jane Approximately
s1t07 - Bird Song
s1t08 - Jack Straw

Set Two:
s2t01 - Crowd
s2t02 - Hey Pocky Way >
s2t03 - Cumberland Blues >
s2t04 - Looks Like Rain >
s2t05 - He's Gone >
s2t06 - Drums >
s2t07 - Space >
s2t08 - The Other One >
s2t09 - Wharf Rat >
s2t10 - Sugar Magnolia
s2t11 - Encore Break
s2t12 - Brokedown Palace


    length     expanded size    cdr  WAVE problems  fmt   ratio  filename
     1:32.440      17748524 B   cxx   --   ---xx   flac  0.4329  gd89-10-12 s1t01 Crowd.flac
     6:16.107      72212524 B   cxx   --   ---xx   flac  0.5219  gd89-10-12 s1t02 Hell In A Bucket.flac
    10:10.147     117148204 B   cxx   --   ---xx   flac  0.4974  gd89-10-12 s1t03 Sugaree.flac
    10:01.400     115468844 B   cxx   --   ---xx   flac  0.4985  gd89-10-12 s1t04 Blow Away.flac
     8:40.773      99988524 B   cxx   --   ---xx   flac  0.4950  gd89-10-12 s1t05 Tennessee Jed.flac
     7:03.080      81231404 B   cxx   --   ---xx   flac  0.4981  gd89-10-12 s1t06 Queen Jane Approximately.flac
    14:40.653     169085484 B   cxx   --   ---xx   flac  0.5088  gd89-10-12 s1t07 Bird Song.flac
     6:04.693      70021164 B   cxx   --   ---xx   flac  0.5100  gd89-10-12 s1t08 Jack Straw.flac
     2:18.267      26547244 B   cxx   --   ---xx   flac  0.3810  gd89-10-12 s2t01 Crowd.flac
     6:49.360      78597164 B   cxx   --   ---xx   flac  0.5165  gd89-10-12 s2t02 Hey Pocky Way.flac
     6:05.293      70136364 B   cxx   --   ---xx   flac  0.5222  gd89-10-12 s2t03 Cumberland Blues.flac
     8:19.680      95938604 B   cxx   --   ---xx   flac  0.4965  gd89-10-12 s2t04 Looks Like Rain.flac
    12:16.920     141488684 B   cxx   --   ---xx   flac  0.4673  gd89-10-12 s2t05 He's Gone.flac
    10:32.307     121402924 B   cxx   --   ---xx   flac  0.4036  gd89-10-12 s2t06 Drums.flac
     9:55.827     114398764 B   cxx   --   ---xx   flac  0.3934  gd89-10-12 s2t07 Space.flac
     9:25.413     108559404 B   cxx   --   ---xx   flac  0.4743  gd89-10-12 s2t08 The Other One.flac
    12:12.853     140707884 B   cxx   --   ---xx   flac  0.4796  gd89-10-12 s2t09 Wharf Rat.flac
     7:54.427      91089964 B   cxx   --   ---xx   flac  0.5319  gd89-10-12 s2t10 Sugar Magnolia.flac
     1:31.000      17472044 B   cxx   --   ---xx   flac  0.3926  gd89-10-12 s2t11 Encore Break.flac
     5:09.490      59422120 B   cxx   --   ---xx   flac  0.4632  gd89-10-12 s2t12 Brokedown Palace.flac
   157:00.130    1808665836 B                            0.4809  (20 files)


Show Checksums
ffp
gd89-10-12 s1t01 Crowd.flac:e1414e6bebc52a1ba66163f2d7542f2f
gd89-10-12 s1t02 Hell In A Bucket.flac:dc686e5bb87b2df6afaa3febf0c3db3b
gd89-10-12 s1t03 Sugaree.flac:78511f6fa8709ce4f0e08e8e8cededee
gd89-10-12 s1t04 Blow Away.flac:35df23cee7e60ecbe6867e31fb7fa939
gd89-10-12 s1t05 Tennessee Jed.flac:0a3aa12022db7cc8368fa5eee8ee71b9
gd89-10-12 s1t06 Queen Jane Approximately.flac:7c246803e36d8d5668edb3e562a25e5a
gd89-10-12 s1t07 Bird Song.flac:14ac0db9554b2871261163eab788f5bf
gd89-10-12 s1t08 Jack Straw.flac:a824fafd4f5b875244eeaaeb53bfda21
gd89-10-12 s2t01 Crowd.flac:e43bc4332929169590dae93366208a4b
gd89-10-12 s2t02 Hey Pocky Way.flac:456552b946b156c376a385ff6dda4ccf
gd89-10-12 s2t03 Cumberland Blues.flac:5c8f6b0752c6b46887565016a6fbf96f
gd89-10-12 s2t04 Looks Like Rain.flac:cb46e60789e64c5d1813d5027578cb70
gd89-10-12 s2t05 He's Gone.flac:517dcdca1c924f7309039ee570d9a1a3
gd89-10-12 s2t06 Drums.flac:86a0692fb170b2e3dd6c10cf2cf88cd8
gd89-10-12 s2t07 Space.flac:e50f7967d827bb31e0711085aced36ca
gd89-10-12 s2t08 The Other One.flac:256c538571450f20958db2b5a2226e37
gd89-10-12 s2t09 Wharf Rat.flac:071310d5bf409be8b20460a56d7f79c0
gd89-10-12 s2t10 Sugar Magnolia.flac:cdd73126cbdcfffdb5f49a8c3055d42a
gd89-10-12 s2t11 Encore Break.flac:da8a89065c412ba59678a2610ece0913
gd89-10-12 s2t12 Brokedown Palace.flac:273ae7936a32fae49f53a982c795fd7a
flac-md5
da6e09f0d49c9f5f7ebf1d32f6cfd40f *gd89-10-12 s1t01 Crowd.flac
78bf819236fc8c2cbd40ca09a0852713 *gd89-10-12 s1t02 Hell In A Bucket.flac
f50422d7457b908703eb5a5579988063 *gd89-10-12 s1t03 Sugaree.flac
15317dd6b33ad37bcfbf2955e630990c *gd89-10-12 s1t04 Blow Away.flac
151250bde19d6ed42574945e3bf3e7e8 *gd89-10-12 s1t05 Tennessee Jed.flac
15fbb555d720b008e6489040e3c59478 *gd89-10-12 s1t06 Queen Jane Approximately.flac
30bcb02965e2f4c468b74e1de4dbb372 *gd89-10-12 s1t07 Bird Song.flac
927b57be1944d712f7a21dcab38daf89 *gd89-10-12 s1t08 Jack Straw.flac
3d6d8b97c40868e28cc9f88e6ba54afb *gd89-10-12 s2t01 Crowd.flac
129fe6d1a9441af4a31a54bc19dcad57 *gd89-10-12 s2t02 Hey Pocky Way.flac
c0181e9415bc2a13eaa6dfd0c5f8634e *gd89-10-12 s2t03 Cumberland Blues.flac
4a170e39124f8a1a2aa68d0c47d1b3d2 *gd89-10-12 s2t04 Looks Like Rain.flac
1680ea0b4a2927d5e76bbeeab1bd33e9 *gd89-10-12 s2t05 He's Gone.flac
a746275b9d35c450cc80170174ef9b54 *gd89-10-12 s2t06 Drums.flac
b54a9aed355323dcaa03505c663ecb59 *gd89-10-12 s2t07 Space.flac
f6b1f91304899a027ef4a8cc7f9ca6f1 *gd89-10-12 s2t08 The Other One.flac
8a4cf161bddbd2bac84801a3ca232443 *gd89-10-12 s2t09 Wharf Rat.flac
7772755d037a655f2a786c56a1984310 *gd89-10-12 s2t10 Sugar Magnolia.flac
a17d0e7e7eb88171a3e7ba59204abc2c *gd89-10-12 s2t11 Encore Break.flac
10763a1d0b3199bfc17c107ad7ab68b3 *gd89-10-12 s2t12 Brokedown Palace.flac

Comments
Add Comment
Other Sources (comments)
Sbd> Cas(m)> Dat> ZA2/PC>... (0) Lineage: SBD -> Cm -> Dat... (0) flac16; Recording... (0) flac16; AUD:... (0) flac16; matrix of... (0) flac16; Master... (0) flac24; Master... (0) flac16; Taper: M.... (0) flac24; Master... (0) flac16; Master... (0) flac16/48kHz;... (0)
Date User Comment