Browse Collections Artists Sources   Search Dates

Add Show    List Management    Help


Grateful Dead 10/14/89
Meadowlands Arena, East Rutherford, NJ
Comments Add Comment    Source Collectors    Add to Collection    Add to Want List    History
Source # 142512 Other Sources
Entered by Matt Vernon
Checksums ffp , flac-md5
Disc Counts 0 / 0
Media Size
Date Circulated
Date Added
07/04/2018
07/04/2018
Source Summary flac16/48kHz; Source Info: Ted Mattes' Master (FOB)Audience Dat; Schoeps CMC4/MK4 mics @ 110 degrees, ORTF, Schoeps t-bar, hand held, chin high > Monster Cable Interlinks > Oade capacitor P/S > Panasonic SV-250 (16-bit/48k); Transfer Info: Master Dat (Sony PCM-R500)> Tascam DA-3000 (16-bit/48k) > .wav(16-bit/48k)> Adobe Audition 3.0 > TLH 1648 
  Archive
Source Information - Download Text | Download Zip
Grateful Dead
Meadowlands Arena
East Rutherford, NJ
Saturday October 14th, 1989

Source Info:
Ted Mattes' Master (FOB)Audience Dat; Schoeps CMC4/MK4 mics @ 110 degrees, ORTF, Schoeps t-bar, hand held, chin high > Monster Cable Interlinks > Oade capacitor P/S > Panasonic SV-250 (16-bit/48k)

Transfer Info:
Master Dat (Sony PCM-R500)> Tascam DA-3000 (16-bit/48k) > .wav(16-bit/48k)> Adobe Audition 3.0 > TLH 1648



Notes:
- Thanks to Ted Mattes for the master Dat recording
- Thanks to Charlie Miller for the transfer and coordinating this effort

Mastered by Scott Clugston
July 3, 2018

Set One:
s1t01 - Crowd
s1t02 - Touch Of Grey >
s1t03 - New Minglewood Blues
s1t04 - We Can Run
s1t05 - Friend Of The Devil
s1t06 - Mama Tried >
s1t07 - Mexicali Blues
s1t08 - Help On The Way >
s1t09 - Slipknot! >
s1t10 - Franklin's Tower

Set Two:
s2t01 - Crowd
s2t02 - Foolish Heart >
s2t03 - Man Smart (Woman Smarter)
s2t04 - Scarlet Begonias >
s2t05 - Truckin' >
s2t06 - Drums >
s2t07 - Space >
s2t08 - China Doll >
d2t09 - One More Saturday Night
s2t10 - Encore Break
s2t11 - Black Muddy River


    length     expanded size    cdr  WAVE problems  fmt   ratio  filename
     3:02.920      35120684 B   cxx   --   ---xx   flac  0.4142  gd89-10-14 s1t01 Crowd.flac
     6:19.773      72916524 B   cxx   --   ---xx   flac  0.5240  gd89-10-14 s1t02 Touch Of Grey.flac
    10:08.107     116756524 B   cxx   --   ---xx   flac  0.4961  gd89-10-14 s1t03 New Minglewood Blues.flac
     7:01.987      81021484 B   cxx   --   ---xx   flac  0.4935  gd89-10-14 s1t04 We Can Run.flac
     9:38.133     111001644 B   cxx   --   ---xx   flac  0.4832  gd89-10-14 s1t05 Friend Of The Devil.flac
     2:37.733      30284844 B   cxx   --   ---xx   flac  0.5242  gd89-10-14 s1t06 Mama Tried.flac
     6:39.107      76628524 B   cxx   --   ---xx   flac  0.5008  gd89-10-14 s1t07 Mexicali Blues.flac
     3:48.560      43883564 B   cxx   --   ---xx   flac  0.5219  gd89-10-14 s1t08 Help On The Way.flac
     5:26.733      62732844 B   cxx   --   ---xx   flac  0.5130  gd89-10-14 s1t09 Slipknot!.flac
     8:49.027     101573164 B   cxx   --   ---xx   flac  0.5358  gd89-10-14 s1t10 Franklin's Tower.flac
     2:06.627      24312364 B   cxx   --   ---xx   flac  0.3935  gd89-10-14 s2t01 Crowd.flac
     7:36.187      87587884 B   cxx   --   ---xx   flac  0.5231  gd89-10-14 s2t02 Foolish Heart.flac
    10:28.840     120737324 B   cxx   --   ---xx   flac  0.5270  gd89-10-14 s2t03 Man Smart (Woman Smarter).flac
    12:47.520     147363884 B   cxx   --   ---xx   flac  0.5068  gd89-10-14 s2t04 Scarlet Begonias.flac
    11:29.333     132352044 B   cxx   --   ---xx   flac  0.4836  gd89-10-14 s2t05 Truckin'.flac
     7:43.627      89016364 B   cxx   --   ---xx   flac  0.4148  gd89-10-14 s2t06 Drums.flac
     8:38.707      99591724 B   cxx   --   ---xx   flac  0.3912  gd89-10-14 s2t07 Space.flac
     7:24.840      85409324 B   cxx   --   ---xx   flac  0.4911  gd89-10-14 s2t08 China Doll.flac
     5:28.800      63129644 B   cxx   --   ---xx   flac  0.5387  gd89-10-14 s2t09 One More Saturday Night.flac
     1:00.840      11681324 B   cxx   --   ---xx   flac  0.4009  gd89-10-14 s2t10 Encore Break.flac
     6:53.909      79470632 B   cxx   --   ---xx   flac  0.4634  gd89-10-14 s2t11 Black Muddy River.flac
   145:11.309    1672572312 B                            0.4897  (21 files)


Show Checksums
ffp
gd89-10-14 s1t01 Crowd.flac:35535288ae8012207425bdceb1449f8e
gd89-10-14 s1t02 Touch Of Grey.flac:22dc48822981c312214b26ca4acaebff
gd89-10-14 s1t03 New Minglewood Blues.flac:b3c0ae62ba13080ee7beeaec99910a56
gd89-10-14 s1t04 We Can Run.flac:2ed6e0558b7c5ffad0e2e70a7dda34fd
gd89-10-14 s1t05 Friend Of The Devil.flac:3a47c9bad55f91d135316973100f2874
gd89-10-14 s1t06 Mama Tried.flac:d734ff80945e2004f537b2b35adabfb1
gd89-10-14 s1t07 Mexicali Blues.flac:a7a02a1cd8c0e406fd305431bef58099
gd89-10-14 s1t08 Help On The Way.flac:4cdfc426808874a936ae525c6c3ede88
gd89-10-14 s1t09 Slipknot!.flac:ad2100193e0aaad77ccd1de13ccbf374
gd89-10-14 s1t10 Franklin's Tower.flac:b3a8c5b17a3d1034570560d6715b0f58
gd89-10-14 s2t01 Crowd.flac:8c7398e55b2921913dbacee6659cddbb
gd89-10-14 s2t02 Foolish Heart.flac:c7277c691dd7581f5504d4283c26adc0
gd89-10-14 s2t03 Man Smart (Woman Smarter).flac:29e0bfda0407d41d738340fd10faadaa
gd89-10-14 s2t04 Scarlet Begonias.flac:86669175274abfcdcff03a5aea397859
gd89-10-14 s2t05 Truckin'.flac:0d333de42eb5a16f234e25c6598045e0
gd89-10-14 s2t06 Drums.flac:d85f82579a2a71c6c2d0d83f3552cccf
gd89-10-14 s2t07 Space.flac:076d000c7b953bb0e6b22a4187c0a266
gd89-10-14 s2t08 China Doll.flac:aedb6223dc3d0251802cba1b9c319b7f
gd89-10-14 s2t09 One More Saturday Night.flac:9a01a00b1a762bd9d0113836340ed86a
gd89-10-14 s2t10 Encore Break.flac:ff66619737a3b9a542751743f279bb80
gd89-10-14 s2t11 Black Muddy River.flac:a09b0e397102d32e7278bd036dd92ebd
flac-md5
231466ae026e7d5e1d4846f18cdb4023 *gd89-10-14 s1t01 Crowd.flac
c9ff51f65c9f9f9fa5443e6a51486406 *gd89-10-14 s1t02 Touch Of Grey.flac
e821791691afca17e9133fc0b989fc4d *gd89-10-14 s1t03 New Minglewood Blues.flac
a9bdddada90b4e956f3acc100b6a4c97 *gd89-10-14 s1t04 We Can Run.flac
a1a5c51708596a4ea3b428c78c91b27e *gd89-10-14 s1t05 Friend Of The Devil.flac
2b640643461128813fc3deb3834166d4 *gd89-10-14 s1t06 Mama Tried.flac
73d79d0861710a988834a2cede02d98d *gd89-10-14 s1t07 Mexicali Blues.flac
08279e82e9b0169716fa55c2626eba27 *gd89-10-14 s1t08 Help On The Way.flac
584233836a6602b730792cf0f0fb4e49 *gd89-10-14 s1t09 Slipknot!.flac
3216045964d5940f100c5fcedbb5600f *gd89-10-14 s1t10 Franklin's Tower.flac
172a5bcb22b07a111d62510de8e529e0 *gd89-10-14 s2t01 Crowd.flac
3318baf64c17c91aa69356a1c0222884 *gd89-10-14 s2t02 Foolish Heart.flac
57e6f667e336ce79f78970d41f005b4f *gd89-10-14 s2t03 Man Smart (Woman Smarter).flac
66b2b8dcaff419d2fe2a73a9fecbc567 *gd89-10-14 s2t04 Scarlet Begonias.flac
408d976134a4d0018fd21d44d44285d0 *gd89-10-14 s2t05 Truckin'.flac
868a5b71c0b3d19d195983f1b0a5efca *gd89-10-14 s2t06 Drums.flac
a573a6c1dc57d3dbb19199f4f715333d *gd89-10-14 s2t07 Space.flac
f3234d503d9f4bf002da25d838a858ad *gd89-10-14 s2t08 China Doll.flac
619c25d4ec282d47af2a890803f86a22 *gd89-10-14 s2t09 One More Saturday Night.flac
cc7f8ea21d79bc5a22669c2147488ff3 *gd89-10-14 s2t10 Encore Break.flac
e6b2b914735a763be64bca9be54288db *gd89-10-14 s2t11 Black Muddy River.flac

Comments
Add Comment
Other Sources (comments)
Sbd> Cas(m)> Dat> ZA2/PC>... (1) Recording Info: SBD ->... (0) flac16; Recording... (0) flac16; Sennheiser... (1) flac16; AUD:... (0) flac16; matrix of... (0) flac16; Sennheiser... (2) flac16; Master: AKG... (0) flac24; Master... (0) flac16; Master... (0) flac16; Set 2... (0) flac16; Taper: M.... (0) flac16/48kHz; Ted... (0) flac24; Recording... (0)
Date User Comment