Browse Collections Artists Sources   Search Dates

Add Show    List Management    Help


Grateful Dead 10/01/89
Shoreline Amphitheatre, Mountain View, CA
Comments Add Comment    Source Collectors    Add to Collection    Add to Want List    History
Source # 142513 Other Sources
Entered by Matt Vernon
Checksums flac-md5 , ffp
Disc Counts 0 / 0
Media Size Compressed: 915.34 MB (959799296 bytes)
Date Circulated
Date Added
07/04/2018
07/04/2018
Source Summary flac16; Recording Info: UltraMatrix SBD > Cassette Master (TDK MA-XG90); Transfer Info: Cassette Master (Nakamichi CR-7A) > Tascam DA-3000 (DSF 1-bit/5.6 MHz) > KORG AudioGate 4 > Adobe Audition CC2015 > Samplitude Pro X3 Suite > FLAC/24; All Transfers and Mastering by Charlie Miller 
  Archive
Source Information - Download Text | Download Zip
Grateful Dead - October 1, 1989
Shoreline Amphitheatre - Mountain View, CA

Recording Info:
UltraMatrix SBD > Cassette Master (TDK MA-XG90)

Transfer Info:
Cassette Master (Nakamichi CR-7A) > Tascam DA-3000 (DSF 1-bit/5.6 MHz) >
KORG AudioGate 4 > Adobe Audition CC2015 > Samplitude Pro X3 Suite > FLAC/24
(1 DVD FLAC)

All Transfers and Mastering by Charlie Miller
[email protected]
June 20, 2018

Notes:
-- Two sets of masters were used to make this show complete
-- This file set is 16 bit at 44.1

Set 1:
01 - Tuning
02 - Jack Straw
03 - Ramble On Rose
04 - Walkin' Blues
05 - Built To Last
06 - When I Paint My Masterpiece
07 - Just A Little Light
08 - Cassidy >
09 - Don't Ease Me In

Set 2:
10 - Tuning
11 - Hell In A Bucket >
12 - Scarlet Begonias >
13 - Man Smart (Woman Smarter)
14 - He's Gone >
15 - Drums >
16 - Space >
17 - The Other One >
18 - Wharf Rat >
19 - Turn On Your Lovelight

Encore:
20 - Encore Break
21 - Knockin' On Heaven's Door


SHNTOOL OUTPUT:
    length     expanded size    cdr  WAVE problems  fmt   ratio  filename
     2:24.50       25519244 B   ---   --   ---xx   flac  0.5100  01 Tuning.flac
     7:44.68       82009580 B   ---   --   ---xx   flac  0.5852  02 Jack Straw.flac
     9:24.51       99609596 B   ---   --   ---xx   flac  0.5819  03 Ramble On Rose.flac
     8:04.30       85448204 B   ---   --   ---xx   flac  0.5514  04 Walkin' Blues.flac
     6:23.06       67575356 B   ---   --   ---xx   flac  0.6049  05 Built To Last.flac
     7:02.08       74459660 B   ---   --   ---xx   flac  0.5764  06 When I Paint My Masterpiece.flac
     5:56.31       62871356 B   ---   --   ---xx   flac  0.6018  07 Just A Little Light.flac
     6:59.18       73953980 B   ---   --   ---xx   flac  0.6324  08 Cassidy.flac
     4:02.21       42738236 B   ---   --   ---xx   flac  0.6361  09 Don't Ease Me In.flac
     2:14.39       23729372 B   ---   --   ---xx   flac  0.4908  10 Tuning.flac
     6:29.47       68730188 B   ---   --   ---xx   flac  0.6368  11 Hell In A Bucket.flac
    10:51.09      114857612 B   ---   --   ---xx   flac  0.6195  12 Scarlet Beginias.flac
     7:51.40       83178524 B   ---   --   ---xx   flac  0.6219  13 Man Smart (Woman Smarter).flac
    13:10.65      139508924 B   ---   --   ---xx   flac  0.5827  14 He's Gone.flac
     6:05.58       64522460 B   ---   --   ---xx   flac  0.5375  15 Drums.flac
    11:59.16      126869276 B   ---   --   ---xx   flac  0.4747  16 Space.flac
     8:33.31       90566156 B   ---   --   ---xx   flac  0.6100  17 The Other One.flac
    10:23.68      110057180 B   ---   --   ---xx   flac  0.5860  18 Wharf Rat.flac
     7:31.72       79725788 B   ---   --   ---xx   flac  0.6184  19 Turn On Your Lovelight.flac
     3:44.06       39527756 B   ---   --   ---xx   flac  0.4829  20 Encore Break.flac
     9:33.41      101173676 B   ---   --   ---xx   flac  0.5481  21 Knockin' On Heaven's Door.flac
   156:31.25     1656632124 B                            0.5793  (21 files)



Show Checksums
flac-md5
5bcf92926bf27c3baca485a19d60d294 *01 Tuning.flac
57a3c8065eed57702b20cda2ba47fe72 *02 Jack Straw.flac
519f6be58232a7633d19ac86ab55d34a *03 Ramble On Rose.flac
eb012a7f2c013ec223c04661c67ca26e *04 Walkin' Blues.flac
a3e4ec897436bad49805ef28a4524177 *05 Built To Last.flac
7c9c826f88b8aff7ffbeec5286ef7ad7 *06 When I Paint My Masterpiece.flac
0e5e7f0ddece20e08cd15c812cb36653 *07 Just A Little Light.flac
6a722be0a22e1f9b7b283995c357b166 *08 Cassidy.flac
4e0fa0be6dd76c301b2befbb2885a7f9 *09 Don't Ease Me In.flac
623b34bedbb4ae37fddc3c8c5c0503c3 *10 Tuning.flac
96b5d1424ff0ff8dcea7b7093daa3933 *11 Hell In A Bucket.flac
52b1d5a80d4b10983ddfcfaa6f0f5789 *12 Scarlet Beginias.flac
612907de72794bc83b15121b15cfc424 *13 Man Smart (Woman Smarter).flac
8ef7c4dbfcf7a2daeb9d2fe2bdffa39c *14 He's Gone.flac
abc610f132ac8d4278cd43243ac85cfe *15 Drums.flac
db8410a93d1219a66e31842b3a8f42e2 *16 Space.flac
741dc123e2db0c468479de3eb0c7f711 *17 The Other One.flac
5b2c83e6c67edc874e1ff1b1f0e15875 *18 Wharf Rat.flac
84b7a7b6f21ae4c885d4b3a591dbec04 *19 Turn On Your Lovelight.flac
4c4325564f605b86a8ac81851dc44878 *20 Encore Break.flac
e4c9ae82863d8bc8a3be27375a63d9c6 *21 Knockin' On Heaven's Door.flac
ffp
01 Tuning.flac:2aeb4378f90ed6586f190b191e14b16f
02 Jack Straw.flac:fe4d8efad430cb54d4699273266affa4
03 Ramble On Rose.flac:5ccddd5dea6542e14957d34159f4aa09
04 Walkin' Blues.flac:01a7bc805b614c9dea1ffafcd32451f9
05 Built To Last.flac:8b1935bfd6230d5cb1f1c69c0e463598
06 When I Paint My Masterpiece.flac:33ae0dd4f2efcb767f78152982891190
07 Just A Little Light.flac:b91517b4296b695af15c851276771c04
08 Cassidy.flac:ce4ebc5969e7a5048a0bd80cb27accbc
09 Don't Ease Me In.flac:7e8c6ad4bfff561daa8aaff9f8934bff
10 Tuning.flac:fbeb197ef18ed28360e1374ec2aa4b17
11 Hell In A Bucket.flac:3b9d3e3114f81e0fe16aa2e8f40a7856
12 Scarlet Beginias.flac:56aba27e8776b60a3feef2b05391eb19
13 Man Smart (Woman Smarter).flac:ff77d13989673c043c8938cafdeef7a4
14 He's Gone.flac:051dd0a59936d48954f92e9359d05adb
15 Drums.flac:7f87326a2b7cf6a71e95516a2532df22
16 Space.flac:faffe67aea35277dc3fb0564049884fb
17 The Other One.flac:007efe69c97182322d36f9cf7fa39bc0
18 Wharf Rat.flac:7272ed01ba87482799496db44854c205
19 Turn On Your Lovelight.flac:a30a1ad67c1d9b53bb0c7237c014a585
20 Encore Break.flac:dca061796b5d2cf1a496071c7324658d
21 Knockin' On Heaven's Door.flac:3ad2e9fc300aec186538811059e9f581

Comments
Add Comment
Other Sources (comments)
AUD>MC>C>CDR; Seeded to... (1) flac16; Unknown SBD... (0) flac16; Recording... (1) flac16; Set 2... (0) flac16; Recording... (0) flac24; Recording... (0) flac16/48kHz; Source... (0)
Date User Comment