Browse Collections Artists Sources   Search Dates

Add Show    List Management    Help


Grateful Dead 10/15/89
Meadowlands Arena, East Rutherford, NJ
Comments Add Comment    Source Collectors    Add to Collection    Add to Want List    History
Source # 142542 Other Sources
Entered by Matt Vernon
Checksums ffp , flac-md5
Disc Counts 0 / 0
Media Size
Date Circulated
Date Added
07/06/2018
07/06/2018
Source Summary flac16/48kHz; Source Info: Ted Mattes' Master (FOB)Audience Dat; Schoeps CMC4/MK4 mics @ 110 degrees, ORTF, Schoeps t-bar, hand held, chin high > Monster Cable Interlinks > Oade capacitor P/S > Panasonic SV-250 (16-bit/48k); Transfer Info: Master Dat (Sony PCM-R500)> Tascam DA-3000 (16-bit/48k) > .wav(16-bit/48k)> Adobe Audition 3.0 > TLH 1648 
  Archive
Source Information - Download Text | Download Zip
Grateful Dead
Meadowlands Arena
East Rutherford, NJ
Sunday October 15th, 1989

Source Info:
Ted Mattes' Master (FOB)Audience Dat; Schoeps CMC4/MK4 mics @ 110 degrees, ORTF, Schoeps t-bar, hand held, chin high > Monster Cable Interlinks > Oade capacitor P/S > Panasonic SV-250 (16-bit/48k)

Transfer Info:
Master Dat (Sony PCM-R500)> Tascam DA-3000 (16-bit/48k) > .wav(16-bit/48k)> Adobe Audition 3.0 > TLH 1648



Notes:
- Thanks to Ted Mattes for the master Dat recording
- Thanks to Charlie Miller for the transfer and coordinating this effort

Mastered by Scott Clugston
July 3, 2018

Set One:
s1t01 - Crowd
s1t02 - Let The Good Times Roll >
s1t03 - Iko Iko
s1t04 - Walkin' Blues
s1t05 - Far From Me
s1t06 - Row Jimmy
s1t07 - Victim Or The Crime >
s1t08 - Standing On The Moon

Set Two:
s2t01 - Crowd
s2t02 - Samson And Delilah
s2t03 - Just A Little Light >
s2t04 - Crazy Fingers >
s2t05 - Estimated Prophet >
s2t06 - Eyes Of The World >
s2t07 - Drums >
s2t08 - Space >
s2t09 - Stella Blue >
s2t10 - Throwing Stones >
s2t11 - Not Fade Away >
s2t12 - Not Fade Away Chant >
s2t13 - Not Fade Away
s2t14 - Box Of Rain


    length     expanded size    cdr  WAVE problems  fmt   ratio  filename
     3:17.013      37826604 B   cxx   --   ---xx   flac  0.3997  gd89-10-15 s1t01 Crowd.flac
     3:50.707      44295724 B   cxx   --   ---xx   flac  0.5280  gd89-10-15 s1t02 Let The Good Times Roll.flac
     7:37.253      87792684 B   cxx   --   ---xx   flac  0.5503  gd89-10-15 s1t03 Iko Iko.flac
     7:35.387      87434284 B   cxx   --   ---xx   flac  0.5173  gd89-10-15 s1t04 Walkin' Blues.flac
     5:42.587      65776684 B   cxx   --   ---xx   flac  0.4913  gd89-10-15 s1t05 Far From Me.flac
    11:40.573     134510124 B   cxx   --   ---xx   flac  0.4990  gd89-10-15 s1t06 Row Jimmy.flac
     8:10.280      94133804 B   cxx   --   ---xx   flac  0.5312  gd89-10-15 s1t07 Victim Or The Crime.flac
     8:10.947      94261804 B   cxx   --   ---xx   flac  0.5043  gd89-10-15 s1t08 Standing On The Moon.flac
     3:22.280      38837804 B   cxx   --   ---xx   flac  0.3709  gd89-10-15 s2t01 Crowd.flac
     8:02.453      92631084 B   cxx   --   ---xx   flac  0.5368  gd89-10-15 s2t02 Samson & Delilah.flac
     4:44.747      54671404 B   cxx   --   ---xx   flac  0.5369  gd89-10-15 s2t03 Just A Little Light.flac
     8:39.587      99760684 B   cxx   --   ---xx   flac  0.5061  gd89-10-15 s2t04 Crazy Fingers.flac
    12:42.093     146321964 B   cxx   --   ---xx   flac  0.5293  gd89-10-15 s2t05 Estimated Prophet.flac
    11:40.680     134530604 B   cxx   --   ---xx   flac  0.5207  gd89-10-15 s2t06 Eyes Of The World.flac
     7:53.533      90918444 B   cxx   --   ---xx   flac  0.4424  gd89-10-15 s2t07 Drums.flac
    11:23.907     131310124 B   cxx   --   ---xx   flac  0.3965  gd89-10-15 s2t08 Space.flac
     8:31.640      98234924 B   cxx   --   ---xx   flac  0.4444  gd89-10-15 s2t09 Stella Blue.flac
     9:08.573     105326124 B   cxx   --   ---xx   flac  0.5160  gd89-10-15 s2t10 Throwing Stones.flac
     8:31.560      98219564 B   cxx   --   ---xx   flac  0.5234  gd89-10-15 s2t11 Not Fade Away.flac
     2:32.373      29255724 B   cxx   --   ---xx   flac  0.4557  gd89-10-15 s2t12 Not Fade Away Chant.flac
     2:45.893      31851564 B   cxx   --   ---xx   flac  0.4809  gd89-10-15 s2t13 Not Fade Away.flac
     5:07.122      58967384 B   cxx   --   ---xx   flac  0.5055  gd89-10-15 s2t14 Box Of Rain.flac
   161:11.188    1856869108 B                            0.4958  (22 files)


Show Checksums
ffp
gd89-10-15 s1t01 Crowd.flac:3fe0963bd73e49ee14f8fd078e3d9be3
gd89-10-15 s1t02 Let The Good Times Roll.flac:62c3bf69fc7e60e4a2632588039991c1
gd89-10-15 s1t03 Iko Iko.flac:0f181f6cb54791a2363838552995d621
gd89-10-15 s1t04 Walkin' Blues.flac:71e1d4b8c12acbd6f3e70b58a19e6d72
gd89-10-15 s1t05 Far From Me.flac:d2ba17579418e16ffcfa59225ebecf0e
gd89-10-15 s1t06 Row Jimmy.flac:23e71cc485026f832fa452554f3e7e3d
gd89-10-15 s1t07 Victim Or The Crime.flac:99333e5b58c5179408ec7d613bf53c6e
gd89-10-15 s1t08 Standing On The Moon.flac:eff1dbd19acb5738ba6441878610ecac
gd89-10-15 s2t01 Crowd.flac:191f700e3cb2404ce424319084993dc1
gd89-10-15 s2t02 Samson & Delilah.flac:3237e71a4b850b66e50e312650c1ff72
gd89-10-15 s2t03 Just A Little Light.flac:130db764c6ba40853190cd2f30903f3f
gd89-10-15 s2t04 Crazy Fingers.flac:672e3a5ef8674269b956013c9c96ef87
gd89-10-15 s2t05 Estimated Prophet.flac:8e4f21bc333378f51245062b588533ef
gd89-10-15 s2t06 Eyes Of The World.flac:7d3f4b26873d0b764979fa74984c435b
gd89-10-15 s2t07 Drums.flac:f0b28acc3e74c12f28dfc2ede111679e
gd89-10-15 s2t08 Space.flac:1c67c3c7a751f38c1ffad4633d46dd87
gd89-10-15 s2t09 Stella Blue.flac:a56cbe676abfcbf6d1a741ab5e645c60
gd89-10-15 s2t10 Throwing Stones.flac:0ec346b00b1d8a5f7a855d307ecdc456
gd89-10-15 s2t11 Not Fade Away.flac:db11dbb9beda3f47c04cea97d6e4f931
gd89-10-15 s2t12 Not Fade Away Chant.flac:8b629d9f77873ec883a0a096be867183
gd89-10-15 s2t13 Not Fade Away.flac:07c556f655a6dd77cda2af99fdd4c9ce
gd89-10-15 s2t14 Box Of Rain.flac:ca2ac47f487aec2f172b60f6768b7dee
flac-md5
7aa131ba0646cb6cfd20ac9aa2b8ea81 *gd89-10-15 s1t01 Crowd.flac
d6e199eef6163183ca08158e49e43b2c *gd89-10-15 s1t02 Let The Good Times Roll.flac
0edb19badd9875be3b0ff45672e9c209 *gd89-10-15 s1t03 Iko Iko.flac
9856ced2c765dc46bbfb59d7fa414c10 *gd89-10-15 s1t04 Walkin' Blues.flac
18ea80304515ed52d22170ccef2df321 *gd89-10-15 s1t05 Far From Me.flac
e5e7f473fd82fe3f5d1432a56859ee82 *gd89-10-15 s1t06 Row Jimmy.flac
6a2f40da27668a74981c6c21bb97dc2c *gd89-10-15 s1t07 Victim Or The Crime.flac
7b178342c477822500c2ebf40c401690 *gd89-10-15 s1t08 Standing On The Moon.flac
cd09eeb39c7a7e800fddcb4bf98df13b *gd89-10-15 s2t01 Crowd.flac
ff8d32baa9cbd5f50fcadbd3acd2d2b2 *gd89-10-15 s2t02 Samson & Delilah.flac
d5edd807efc3e0beda76662727fd3dd3 *gd89-10-15 s2t03 Just A Little Light.flac
3a510dcc3a9ceb4797364472ca72e84a *gd89-10-15 s2t04 Crazy Fingers.flac
504e63b6f650905227917ce17576b127 *gd89-10-15 s2t05 Estimated Prophet.flac
a95ddd8d6bc6c99048dc6589b4929f9a *gd89-10-15 s2t06 Eyes Of The World.flac
2ed5a793499a5bb9613426c92ef770ef *gd89-10-15 s2t07 Drums.flac
94b9a0939ec08bcaa2f9774c239146c2 *gd89-10-15 s2t08 Space.flac
847aaea13f06e911bc23f37088fe2dcb *gd89-10-15 s2t09 Stella Blue.flac
bd337dc1a8117f3b44fa1b4f6e3731f5 *gd89-10-15 s2t10 Throwing Stones.flac
7c66a35dcca5647f05e6796d06ca254c *gd89-10-15 s2t11 Not Fade Away.flac
be5fb898d60504615792d16f61b780a5 *gd89-10-15 s2t12 Not Fade Away Chant.flac
a67a5fe4408cc3f206cefcfc4721a542 *gd89-10-15 s2t13 Not Fade Away.flac
c507f3295fcbb6adb84e0f35df4356ac *gd89-10-15 s2t14 Box Of Rain.flac

Comments
Add Comment
Other Sources (comments)
SBD> C> DAT> CDR; seeded by... (1) flac16; Recording... (0) flac16; AUD:... (0) flac16; matrix of... (0) flac16; Master: AKG... (0) flac24; Master... (0) flac16; Master... (0) flac16/48kHz; Set 1... (0) flac16; Set 1... (0) flac16; Taper: M.... (0) flac16/48kHz; Set 2... (0)
Date User Comment